<?xml version="1.0" standalone="no"?>
<!DOCTYPE svg PUBLIC "-//W3C//DTD SVG 1.1//EN" "http://www.w3.org/Graphics/SVG/1.1/DTD/svg11.dtd" >
<svg>
<metadata>
Created by FontForge 20120731 at Thu Sep  5 02:33:44 2019
 By www-data
Meath FLF, 4.1 Copyright Casady &#38; Greene, Inc. 1988-92 All rights reserved.
</metadata>
<defs>
<font id="MeathFLF" horiz-adv-x="442" >
  <font-face 
    font-family="MeathFLF"
    font-weight="500"
    font-stretch="normal"
    units-per-em="1000"
    panose-1="2 0 6 7 8 0 0 2 0 3"
    ascent="800"
    descent="-200"
    x-height="370"
    cap-height="660"
    bbox="-108.9 -221.5 1309 823.533"
    underline-thickness="20"
    underline-position="-123"
    unicode-range="U+0005-E009"
  />
<missing-glyph horiz-adv-x="500" 
 />
    <glyph glyph-name=".notdef" horiz-adv-x="500" 
 />
    <glyph glyph-name="breve" horiz-adv-x="400" 
d="M324 480q-39 -20 -68 -30.5t-56 -10.5t-56 10.5t-68 30.5l7.5 -12.5t22.5 -27.5t38.5 -27t55.5 -11q28 1 51 13t39.5 26.5t25 26.5z" />
    <glyph glyph-name="dotaccent" horiz-adv-x="400" 
d="M146 497q-12 -15 -11.5 -32t8.5 -31.5t23.5 -24t33.5 -9.5q19 0 34 9.5t23.5 24t8.5 31.5t-12 32q-11 13 -25 20t-29 7t-29.5 -7t-24.5 -20z" />
    <glyph glyph-name="ring" horiz-adv-x="400" 
d="M143 503q-12 -16 -12 -34t9 -33t24.5 -25t35.5 -10q19 0 34.5 10.5t23.5 26.5t8 33q0 18 -11 33t-26 22t-30.5 6.5t-30 -8t-25.5 -21.5zM200 413q-10 0 -20.5 8.5t-18.5 21t-11 26.5t2 25q7 15 18.5 22t23.5 6t23 -9t19 -21q20 -35 8 -56.5t-44 -22.5z" />
    <glyph glyph-name="hungarumlaut" unicode="&#xa;" horiz-adv-x="352" 
d="M50 404q1 -2 16 4.5t36 17t43.5 23.5t38.5 24q7 5 6 13t-6.5 15t-14 9.5t-16.5 -3.5q-12 -10 -30 -26.5t-34.5 -32.5t-28 -29t-10.5 -15zM172 404q1 -2 16 4.5t36 17t43.5 23.5t38.5 24q7 5 6 13t-6.5 15t-14 9.5t-16.5 -3.5q-12 -10 -30 -26.5t-34.5 -32.5t-28 -29
t-10.5 -15z" />
    <glyph glyph-name="ogonek" horiz-adv-x="400" 
d="M234 0h-60q-3 -2 -9.5 -14.5t-11 -29.5t-5 -34.5t7.5 -28.5q12 -17 34 -23t43.5 -2.5t37.5 16t16 32.5l-8 -4t-19.5 -7t-24.5 -2t-22 10t-9.5 19.5t4 21.5t12.5 22.5t14 23.5z" />
    <glyph glyph-name="caron" horiz-adv-x="400" 
d="M281 512l-9 -6t-21 -15.5t-24 -21t-19 -22.5l-8.5 7.5t-21.5 18.5t-29.5 22t-31.5 19l-40 -34q33 -12 59.5 -31.5t38 -32.5t13.5 -15q8 14 25 32t34.5 33.5t31 26l13.5 10.5z" />
    <glyph glyph-name="dotlessi" unicode="&#xd;" horiz-adv-x="220" 
d="M129 44v325h-120q-5 0 -2 -2t9.5 -5t14 -6t11.5 -4q7 -2 18.5 -15.5t11.5 -45.5v-247q0 -24 -14 -44h85q-7 12 -10.5 22t-3.5 22z" />
    <glyph glyph-name="Lslash" horiz-adv-x="536" 
d="M123 392l-34 -9l-77 -69l111 30v-263q0 -6 -0.5 -17t-2 -23t-5.5 -23t-10 -18l24.5 -0.5t62.5 -1t83 -2.5t86 -5t72.5 -8t40.5 -11l38 114q-23 -18 -55 -31t-67 -21t-70 -12t-63 -2.5t-45 8t-17 17.5v319l45 12l77 68l-122 -33v249h-182q0 -8 17 -13.5t38 -17.5t38 -34
t17 -62v-141z" />
    <glyph glyph-name="lslash" horiz-adv-x="266" 
d="M91 333l-8.5 -2t-16 -4t-8.5 -2l-57 -61l90 21v-241q0 -24 -14 -44h86q-7 12 -10.5 22t-3.5 22v257l28 7l77 68l-105 -27v108q0 25 4 45t8.5 34.5t7 22.5t-0.5 8q-4 0 -17.5 -9.5t-33.5 -22.5t-43.5 -24.5t-47.5 -15.5q-5 -1 5 -5.5t23 -13.5t25 -23t12 -33v-87z" />
    <glyph glyph-name="Zcaron" horiz-adv-x="744" 
d="M25 0l17 -19l22.5 20t59.5 44t84.5 45t97.5 24q39 2 67.5 -6t52 -22t44 -31.5t41.5 -35t45.5 -32t57.5 -21.5q11 -2 29.5 15.5t36 39.5t29.5 42t11 22q-2 3 -7.5 0t-15.5 -7t-24 -8t-33 -3q-38 2 -60 14.5t-44.5 29t-53.5 33t-87 25.5q-33 6 -65 2t-58 -10.5t-42 -13
l-16 -6.5l486 487q11 12 -2.5 15.5t-45 2.5t-78 -4.5t-100 -5t-111 0t-111.5 10.5q-20 3 -36 11t-27.5 16t-18 14t-6.5 5q-13 -29 -24.5 -48t-23.5 -34t-25.5 -29.5t-30.5 -34.5q-5 -5 8.5 0.5t41.5 14t68.5 16.5t90.5 8h342zM535 802l-9 -6t-21 -15.5t-24 -21t-19 -22.5
l-8.5 7.5t-21.5 18.5t-29.5 22t-31.5 19l-40 -34q33 -12 59.5 -31.5t38 -32.5t13.5 -15q8 14 25 32t34.5 33.5t31 26l13.5 10.5z" />
    <glyph glyph-name="zcaron" horiz-adv-x="426" 
d="M2 12l16 -16l13 12t34 26t48 26.5t55 13.5q32 1 51.5 -11t36 -28t33.5 -31.5t44 -21.5q5 -1 17.5 12.5t25 30t21.5 31.5t8 17q-2 2 -5 0.5l-8 -4t-13 -5t-18 -2.5q-21 1 -33 8t-24 16.5t-29 18.5t-48 14q-14 2 -33.5 -2t-36.5 -10t-29 -11.5l-12 -5.5l269 267
q13 13 -8 13q-20 0 -59 -3.5t-88 -5.5t-92 7q-20 4 -34 14l-14 10q-7 -16 -14 -27t-15 -20t-17.5 -18.5t-19.5 -21.5q-2 -3 5.5 0t23 7.5t37.5 9t49 4.5h177zM329 512l-9 -6t-21 -15.5t-24 -21t-19 -22.5l-8.5 7.5t-21.5 18.5t-29.5 22t-31.5 19l-40 -34q33 -12 59.5 -31.5
t38 -32.5t13.5 -15q8 14 25 32t34.5 33.5t31 26l13.5 10.5z" />
    <glyph glyph-name="space" unicode=" " horiz-adv-x="261" 
 />
    <glyph glyph-name="exclam" unicode="!" horiz-adv-x="215" 
d="M85 513v-342q0 -14 -3.5 -24t-10.5 -20h86q-7 12 -10.5 21.5t-3.5 22.5v379q0 24 4 44.5t8.5 34.5t6.5 22.5t-1 8.5q-4 0 -17.5 -9.5t-33 -22.5t-43 -24.5t-46.5 -15.5q-5 -1 4.5 -5.5t23 -13.5t25 -23t11.5 -33zM67 41q0 -20 13.5 -33.5t33.5 -13.5t33.5 13.5t13.5 33.5
t-13.5 33.5t-33.5 13.5t-33.5 -13.5t-13.5 -33.5z" />
    <glyph glyph-name="quotedbl" unicode="&#x22;" horiz-adv-x="205" 
d="M37 669q1 -10 4 -27t6 -33.5t6.5 -28.5t6.5 -12q2 0 5.5 12t6.5 28.5t5.5 33.5t3.5 27t-6 14.5t-16 4.5t-16 -4.5t-6 -14.5zM121 669q1 -10 4 -27t6 -33.5t6.5 -28.5t5.5 -12t5.5 12t7 28.5t6 33.5t3.5 27t-6 14.5t-16 4.5t-16 -4.5t-6 -14.5z" />
    <glyph glyph-name="numbersign" unicode="#" horiz-adv-x="453" 
d="M62 308l50 27l27 52h101l-38 -77l58 42l18 35h61l51 26h-99l39 77h53l48 27h-88l34 68l-52 -29l-20 -39h-103l36 67l-51 -28l-20 -39h-65l-49 -27h101l-39 -76h-63l-48 -27h98zM151 413l38 77h103l-38 -77h-103z" />
    <glyph glyph-name="dollar" unicode="$" horiz-adv-x="536" 
d="M237 662q-27 0 -66 -8t-75.5 -29t-62.5 -58.5t-26 -97.5q0 -40 24 -69t57 -47.5t68 -30t57 -16t24 -4.5v-277q-2 0 -16 1.5t-37 8.5t-41 21q-20 15 -32 32t-18.5 30.5t-9.5 22.5t-5 8q-5 -2 -5.5 -7.5t0.5 -13.5t1.5 -17.5t-1.5 -19.5q-3 -14 -8 -24t-10 -16.5
t-7.5 -10.5t0.5 -5q39 -17 73.5 -24.5t60 -10t40.5 -2l15 0.5v-44q0 -10 -1.5 -27.5t-7.5 -34.5h53q-5 17 -7 34.5t-2 27.5v48q5 -1 22 3t40 13t48 24t46 37.5t35 52.5t14 69q0 37 -21.5 64.5t-51 45t-60.5 28.5t-50.5 15t-21.5 4v282q2 0 16 -3t37 -12.5t43 -25.5
q24 -20 38.5 -39t23 -32.5t11.5 -19.5t3 1q0 25 6 44t13 32.5t11.5 21t2.5 8.5q-38 17 -75 26t-66 13.5t-46.5 5.5l-17.5 1v92h-91q-9 0 -8 -4t7 -9t14 -11.5t13 -10.5q8 -7 15 -21.5t11 -24t4 -11.5zM420 169q0 -54 -23 -83.5t-51 -43t-51 -15.5l-23 -2v267l23 -6.5
t51 -20.5t51 -38t23 -58zM57 521q0 35 18.5 58t44.5 35.5t53.5 19t45 7.5t18.5 1v-275q-1 0 -18.5 4t-45 14.5t-53.5 27.5t-44.5 44t-18.5 64z" />
    <glyph glyph-name="percent" unicode="%" horiz-adv-x="567" 
d="M84 96q-1 -2 -10.5 -15t-22 -29t-25 -31t-18.5 -21h53q3 8 12 23.5t19 31t18 27.5t9 14l395 564h-91q-9 0 -10.5 -3t0 -8t5 -11.5t6.5 -13.5q3 -8 -1.5 -22.5t-13 -31.5t-19 -33.5t-18.5 -28.5zM584 143q0 38 -13 66.5t-34.5 47.5t-49 28.5t-55.5 9.5q-29 0 -56 -9.5
t-48.5 -28.5t-34.5 -47.5t-13 -66.5t13 -66.5t34.5 -47.5t48.5 -28.5t56 -9.5t56.5 9.5t48.5 28.5t34 47.5t13 66.5zM432 283q25 0 43.5 -12t31 -31.5t18.5 -45t6 -51.5t-6 -51t-18.5 -44.5t-31 -31.5t-43.5 -12t-43.5 12t-30.5 31.5t-18 44.5t-6 51t5.5 51.5t18 45t31 31.5
t43.5 12zM312 537q0 38 -13 66.5t-35 47.5t-49.5 28.5t-55.5 9.5q-29 0 -56 -9.5t-48.5 -28.5t-34.5 -47.5t-13 -66.5t13 -66.5t34.5 -47.5t49 -28.5t55.5 -9.5q29 0 56.5 9.5t49 28.5t34.5 47.5t13 66.5zM159 677q25 0 43.5 -12t31 -32t18.5 -45t6 -51t-6 -51t-18.5 -44.5
t-31 -31.5t-43.5 -12t-43.5 12t-30.5 31.5t-18 44.5t-6 51t5.5 51t18 45t31 32t43.5 12z" />
    <glyph glyph-name="ampersand" unicode="&#x26;" horiz-adv-x="971" 
d="M553 310q-1 2 -8 12t-20.5 27.5t-27.5 30.5q-22 21 -48.5 36t-50 25t-39 14.5l-15.5 4.5q38 17 59.5 46t22.5 58q1 19 -6.5 36.5t-22.5 30.5t-36.5 21t-49.5 8q-26 0 -47.5 -8.5t-36.5 -22t-23 -30.5t-8 -35q0 -32 20.5 -59.5t61.5 -44.5q-2 -1 -25 -9t-59 -27t-70.5 -47
t-59.5 -67t-25 -88q0 -57 23.5 -101t62.5 -74t89.5 -45.5t104.5 -15.5q46 0 81.5 12.5t62.5 34.5t46 52.5t33 66.5l13.5 -19.5t37 -45t54.5 -49.5t66 -33t73 -8t71.5 10.5t58.5 26t34 38.5q0 1 -6.5 -5.5t-19.5 -15t-31.5 -16.5t-41.5 -11t-50.5 2.5t-58.5 24.5
q-45 27 -76.5 64.5t-52 72.5t-30 59.5l-9.5 24.5q4 17 8.5 33t17.5 31t38 27.5t70 23.5q3 0 4 6t1 14t0.5 17t3.5 16q2 6 8 13.5t11 14t7 10t-3 1.5q-55 -26 -89.5 -48t-55 -42.5t-29.5 -39.5t-13 -39zM254 564q0 39 18 59.5t39 20.5q22 0 39.5 -20t17.5 -60q0 -22 -9 -38.5
t-19.5 -27.5t-19.5 -16.5l-9 -5.5l-9 5.5t-19.5 16.5t-19.5 27.5t-9 38.5zM127 222q0 35 12.5 65.5t32 54.5t42 42.5t43 31.5t35.5 19.5t19 6.5q6 -2 19 -8t29 -15t33 -21t30 -25q25 -26 43.5 -57.5t30.5 -59t18 -46l6 -18.5q-14 -44 -36 -77.5t-49 -56.5t-57 -35t-59 -12
q-38 0 -73 14t-61.5 41t-42 66.5t-15.5 89.5z" />
    <glyph glyph-name="quotesingle" unicode="'" horiz-adv-x="121" 
d="M37 669q1 -10 4 -27t6 -33.5t6.5 -28.5t6.5 -12q2 0 5.5 12t6.5 28.5t5.5 33.5t3.5 27t-6 14.5t-16 4.5t-16 -4.5t-6 -14.5z" />
    <glyph glyph-name="parenleft" unicode="(" horiz-adv-x="176" 
d="M158 784q-48 -33 -79 -98t-47 -146t-19 -170.5t5 -171t26 -147.5t42 -101l61 50q-46 109 -62.5 210t-15.5 188t15 158t30.5 122t30 78.5z" />
    <glyph glyph-name="parenright" unicode=")" horiz-adv-x="176" 
d="M14 -42q48 33 79 97t47 144t19 168t-5 169.5t-26 149t-43 106.5l-60 -51q45 -110 62 -210.5t16 -187.5t-15 -158t-30.5 -121.5t-30 -78z" />
    <glyph glyph-name="asterisk" unicode="*" horiz-adv-x="248" 
d="M137 482l62 62l-10 10l-57 -57v81l-14 -13v-68l-57 57l-10 -10l62 -62l-62 -61l10 -10l57 57v-81l14 13v68l57 -57l10 10z" />
    <glyph glyph-name="plus" unicode="+" horiz-adv-x="452" 
d="M191 324v-155l35 20v135h99l93 46h-192v141l-35 -22v-119h-96l-92 -46h188z" />
    <glyph glyph-name="comma" unicode="," horiz-adv-x="187" 
d="M72 77q-18 0 -30 -11.5t-12 -28.5q0 -16 5.5 -24t12 -13.5t12 -10t5.5 -14.5t-5 -21.5t-11 -21t-9.5 -16t-0.5 -6.5q4 0 16 9t25 25.5t23.5 40t10.5 51.5q0 18 -12 29.5t-30 11.5z" />
    <glyph glyph-name="hyphen" unicode="-" horiz-adv-x="416" 
d="M92 292l-92 -46h297l92 46h-297z" />
    <glyph glyph-name="period" unicode="." horiz-adv-x="209" 
d="M30 35q0 -17 12.5 -29.5t29.5 -12.5t29.5 12.5t12.5 29.5t-12.5 29.5t-29.5 12.5t-29.5 -12.5t-12.5 -29.5z" />
    <glyph glyph-name="slash" unicode="/" horiz-adv-x="567" 
d="M80 72q-1 -2 -9 -15t-18 -28.5t-20 -30.5t-16 -22h53q1 9 8 24.5t15 31t14.5 27t7.5 13.5l403 698h-92q-9 0 -10.5 -3t1.5 -8t8 -11.5t8 -13.5q3 -8 0.5 -22.5t-8.5 -31t-14 -33.5t-15 -29z" />
    <glyph glyph-name="zero" unicode="0" horiz-adv-x="592" 
d="M276 635q-51 0 -100 -20.5t-87.5 -61t-62 -101.5t-23.5 -142t23.5 -142t61.5 -101.5t87.5 -61t100.5 -20.5t100 20.5t87.5 61t62 101.5t23.5 142t-23.5 142t-61.5 101.5t-87.5 61t-100.5 20.5zM276 9q-35 0 -68 19t-59 56.5t-42 94t-16 131.5q0 76 16 132.5t42 94
t59.5 56.5t68.5 19q34 0 67.5 -19t59 -56.5t41.5 -94.5t16 -132q0 -76 -16 -132.5t-42 -94t-59 -56t-68 -18.5z" />
    <glyph glyph-name="one" unicode="1" horiz-adv-x="326" 
d="M185 81v512q0 24 -6 33.5t-17 9.5t-25 -8t-29 -19.5t-30 -24t-27 -20.5q2 0 16 1.5t30 -1.5t16 -15v-468q0 -6 -0.5 -17t-2 -23t-5.5 -23t-10 -18h108q-6 7 -9.5 18t-5.5 23t-2.5 23t-0.5 17z" />
    <glyph glyph-name="two" unicode="2" horiz-adv-x="499" 
d="M-8 0h250q47 0 77.5 -7.5t48.5 -15.5t25 -13.5t7 -2.5q1 19 10.5 42t20 43.5t19.5 34.5l9 14q-9 -3 -20 -10t-26 -14.5t-35 -13t-48 -5.5h-231l24 18.5t60 50.5t78.5 74t78.5 90t60 98t24 97q0 43 -13.5 73t-36 48.5t-53.5 26.5t-65 8q-36 0 -73 -9.5t-69 -27.5
t-57.5 -45t-37.5 -62q2 0 12 1.5t27 3.5t30 2t31 -3t28.5 -5.5t12.5 -2.5q-36 33 -40 58.5t12.5 41t47 20t63.5 -4.5q22 -6 42.5 -18.5t36.5 -32.5t25.5 -48t8.5 -64q-1 -45 -28 -95t-67.5 -99t-87.5 -93.5t-87 -78.5t-67 -54z" />
    <glyph glyph-name="three" unicode="3" horiz-adv-x="474" 
d="M156 499q-21 30 -26.5 51.5t0.5 34.5t21 19.5t34 6.5t42.5 -4.5t43 -16t33 -29.5t13.5 -45q0 -51 -21.5 -82t-47 -47.5t-47 -21.5l-21.5 -5q42 -4 72.5 -23t50 -46.5t29 -60.5t9.5 -65q0 -22 -8.5 -49.5t-25 -52t-41 -41t-57.5 -16.5q-23 0 -40 8t-28 21.5t-15.5 31.5
t-2.5 37q-2 -1 -16.5 -9.5t-41 -19t-51.5 -13.5q-7 -1 5 -12t38.5 -24.5t65.5 -24.5t86 -11q40 0 79 11.5t70.5 34t51 55.5t19.5 76q0 55 -25.5 94.5t-56.5 64.5t-56.5 36.5l-25.5 11.5q18 7 42.5 17t47 27t37.5 43.5t13 66.5q-2 25 -17.5 45.5t-40.5 34t-57.5 21t-66.5 7.5
q-30 0 -60.5 -7t-58 -20.5t-50 -33.5t-37.5 -47q2 0 12 -0.5t26.5 -2t29.5 -3.5t30.5 -8t28 -10t12.5 -5z" />
    <glyph glyph-name="four" unicode="4" horiz-adv-x="569" 
d="M113 529q8 -61 -5 -117t-32 -98.5t-36.5 -68l-17.5 -25.5h310v-139q0 -6 -0.5 -17t-2 -23t-5.5 -23t-10 -18h107q-6 7 -9.5 18t-5 23t-2 23t-0.5 17v139h60l79 35h-139v288q0 24 4 44.5t8.5 34.5t7 22.5t-0.5 8.5q-4 0 -16 -9.5t-31 -22.5t-43.5 -25t-52.5 -16
q-5 0 3 -4.5t18.5 -13.5t20.5 -23t10 -33v-251h-229l14 27t31 76.5t31 119.5t14 156q0 8 -5.5 7.5t-14 -4t-18 -8.5t-16.5 -6q-15 -3 -27 -2.5t-23.5 0t-24 -3.5t-28.5 -12q-5 -3 5 -6.5t25 -11.5t29.5 -21.5t17.5 -36.5z" />
    <glyph glyph-name="five" unicode="5" horiz-adv-x="481" 
d="M9 64q-6 -1 4.5 -12.5t36.5 -25t68 -25t98 -11.5q42 0 80 15t67.5 43.5t46.5 70t17 93.5q0 64 -24.5 103t-60 61t-74.5 29.5t-69 7.5q-23 0 -45 -3t-34 -5.5t-14 -2.5v194h121q21 0 37 -3.5t30 -11.5t28 -21.5t31 -33.5q0 2 2 12t7.5 26t13.5 27q7 9 16.5 18t16 14t7.5 6
h-385v-282l15 6.5t39 14t54 14t60 6.5t58.5 -10.5t50 -32t34.5 -55t13 -78.5t-10.5 -83t-29.5 -65.5t-44 -42.5t-55 -15q-25 0 -43 4.5t-32 17t-25 34t-21 54.5q-1 -2 -9.5 -12t-28.5 -23t-48 -17z" />
    <glyph glyph-name="six" unicode="6" horiz-adv-x="491" 
d="M330 629q-71 0 -128.5 -29t-98.5 -78.5t-63.5 -114.5t-22.5 -137t17.5 -124.5t46.5 -87t67 -51.5t80 -17q45 0 81 23t61.5 56t39 70t13.5 65q0 44 -15 75t-38 50t-52 27.5t-57 8.5q-38 0 -67.5 -14.5t-37.5 -38.5q16 8 38.5 18.5t51.5 10.5q22 0 41 -10.5t33 -29
t22.5 -43.5t8.5 -54q0 -32 -8.5 -67t-24.5 -64t-39 -48t-51 -19q-30 0 -52.5 23t-38.5 60.5t-24 85t-8 95.5q0 87 11 149t30.5 101t47 57t60.5 18q38 0 62.5 -17t50.5 -52l6.5 21.5t23.5 44.5q7 9 17 18t16.5 13.5t7.5 5.5h-108z" />
    <glyph glyph-name="seven" unicode="7" horiz-adv-x="451" 
d="M129 -27l104 28q-1 52 0 96.5t6.5 86.5t15 85t25.5 93q13 42 32.5 76t42 65.5t47.5 62t50 64.5h-240q-39 0 -66.5 8.5t-45 19t-25.5 19.5l-8 9q-2 -29 -20.5 -68t-43.5 -75l9 8.5t29.5 18t53 18t79.5 8.5h202q-16 -18 -36.5 -41.5t-42 -53t-42 -64t-35.5 -73.5
q-43 -109 -62.5 -206t-28.5 -185z" />
    <glyph glyph-name="eight" unicode="8" horiz-adv-x="498" 
d="M459 168q0 42 -16 73t-38 50.5t-45 31t-38 16t-16 4.5l17.5 5.5t39 21.5t39 44t17.5 72q0 37 -15.5 65.5t-41 47t-57.5 28t-66 9.5t-66 -9.5t-57.5 -28.5t-41 -47t-15.5 -65q0 -44 17.5 -72t39 -44t39 -21.5l17.5 -5.5q-1 0 -16 -4.5t-38 -16t-45 -31t-38 -50.5t-16 -73
q0 -46 19 -80.5t50 -57.5t70.5 -34.5t80.5 -11.5t80.5 11.5t70.5 34.5t50 57.5t19 80.5zM347 486q0 -26 -6 -50t-19 -42.5t-33.5 -30t-49.5 -11.5t-49.5 11.5t-33.5 30t-19 42.5t-6 50q0 28 6 52.5t19 42.5t33.5 28.5t49.5 10.5t49.5 -10.5t33.5 -28.5t19 -42.5t6 -52.5z
M239 4q-36 0 -61 14t-41 37t-23 52.5t-7 60.5t7 61t23 53t41 37.5t61 14.5t61 -14.5t41 -38t23 -53t7 -60.5t-7 -60.5t-23 -52.5t-41 -37t-61 -14z" />
    <glyph glyph-name="nine" unicode="9" horiz-adv-x="491" 
d="M115 0q71 0 128.5 29t98.5 78.5t63.5 114.5t22.5 137t-17.5 124.5t-46.5 87t-67 51.5t-80 17q-45 0 -81 -23t-61.5 -56t-39 -70t-13.5 -65q0 -44 15 -75t38 -50t52 -27.5t57 -8.5q38 0 67.5 14.5t37.5 38.5q-16 -8 -38.5 -18.5t-51.5 -10.5q-22 0 -41 10.5t-33.5 29
t-22.5 43.5t-8 54q0 32 8.5 67t24.5 64t39 48t51 19q30 0 52.5 -23.5t38.5 -61t24 -84.5t8 -95q0 -87 -11 -149t-30.5 -101t-47 -57t-60.5 -18q-38 0 -62.5 17t-50.5 52l-6.5 -21.5t-23.5 -44.5q-7 -9 -17 -18t-16.5 -13.5t-7.5 -5.5h108z" />
    <glyph glyph-name="colon" unicode=":" horiz-adv-x="209" 
d="M30 316q0 -17 12.5 -29.5t29.5 -12.5t29.5 12.5t12.5 29.5t-12.5 29.5t-29.5 12.5t-29.5 -12.5t-12.5 -29.5zM30 35q0 -17 12.5 -29.5t29.5 -12.5t29.5 12.5t12.5 29.5t-12.5 29.5t-29.5 12.5t-29.5 -12.5t-12.5 -29.5z" />
    <glyph glyph-name="semicolon" unicode=";" horiz-adv-x="187" 
d="M30 316q0 -17 12.5 -29.5t29.5 -12.5t29.5 12.5t12.5 29.5t-12.5 29.5t-29.5 12.5t-29.5 -12.5t-12.5 -29.5zM72 77q-18 0 -30 -11.5t-12 -28.5q0 -16 5.5 -24t12 -13.5t12 -10t5.5 -14.5t-5 -21.5t-11 -21t-9.5 -16t-0.5 -6.5q4 0 16 9t25 25.5t23.5 40t10.5 51.5
q0 18 -12 29.5t-30 11.5z" />
    <glyph glyph-name="less" unicode="&#x3c;" horiz-adv-x="292" 
d="M229 424l-68 -10q-5 -19 -16.5 -42.5t-31 -46.5t-47.5 -43.5t-65 -32.5q1 -1 16 -10.5t39.5 -28t49.5 -40t46.5 -46.5t29.5 -47l61 15q-10 27 -35 56t-51.5 53t-47 39.5l-20.5 15.5q27 10 49.5 30t40.5 43.5t31 48.5t19 46z" />
    <glyph glyph-name="equal" unicode="=" horiz-adv-x="416" 
d="M92 321l-92 -46h297l92 46h-297zM92 244l-92 -46h297l92 46h-297z" />
    <glyph glyph-name="greater" unicode="&#x3e;" horiz-adv-x="292" 
d="M57 80l68 10q4 19 16 42.5t31.5 46.5t47.5 43.5t65 32.5l-24.5 16t-55.5 41.5t-61 55.5t-40 59l-61 -15q10 -27 35 -56t51.5 -53t47 -39.5l20.5 -15.5q-27 -11 -49.5 -30.5t-40.5 -43t-31 -48.5t-19 -46z" />
    <glyph glyph-name="question" unicode="?" horiz-adv-x="408" 
d="M374 456q0 39 -16 72t-43.5 57t-64 37.5t-77.5 13.5q-42 0 -71 -10.5t-48 -27t-29.5 -37.5t-13.5 -42q-5 -29 7 -53.5t27.5 -41t28 -23t8.5 -0.5q-20 34 -20 72q0 39 14 71.5t39.5 54t57.5 21.5q31 0 55.5 -14t41.5 -37t26 -52.5t9 -60.5q0 -41 -13.5 -73t-34 -58
t-44.5 -48t-45 -43.5t-35 -44t-15 -49.5q0 -7 5 -7t12.5 3t16 7t15.5 4q12 0 23.5 -3t22 -6t19.5 -4t15 2q8 4 1 7.5t-18 11.5t-20.5 23.5t-5.5 45.5q2 15 15.5 26t32.5 23t40 26.5t39.5 35.5t30.5 50t12 71zM129 41q0 -20 13.5 -33.5t33.5 -13.5t33.5 13.5t13.5 33.5
t-13.5 33.5t-33.5 13.5t-33.5 -13.5t-13.5 -33.5z" />
    <glyph glyph-name="at" unicode="@" horiz-adv-x="485" 
d="M182 71q18 0 36.5 10.5t33.5 22.5t24 22.5l9 10.5l23 -46q18 -37 43 -46t47.5 4.5t38.5 46.5t16 80q0 55 -19 95t-50 66.5t-70.5 39t-80.5 12.5t-82.5 -13t-75 -39.5t-54.5 -66.5t-21 -94q0 -48 19 -82.5t49 -58t66.5 -36t71.5 -16.5t64 0.5t44 14.5q6 4 -10 2.5
t-43.5 -1t-62 6t-64 24t-50 53t-20.5 93.5q0 37 11 72.5t33 63t53 44.5t72 17q40 0 69.5 -15.5t49 -42t28.5 -62.5t9 -77q0 -24 -1.5 -51t-7 -42.5t-16 -12t-28.5 39.5l-82 165q-5 10 -12 21t-13.5 20.5t-11.5 15t-5 4.5q-2 -14 -8 -21t-12.5 -10.5t-13.5 -7t-12 -9.5
q1 1 9 5.5t21 1.5t23 -25l15 -32l-11 -2t-27 -7t-33.5 -14t-29.5 -22q-19 -21 -24 -42.5t2 -39.5t25.5 -29t45.5 -11zM280 146q-1 -2 -10.5 -12.5t-29 -23t-41.5 -13.5q-23 -1 -36.5 9.5t-18 25.5t-1 32t13.5 29q8 10 21.5 17.5t26.5 12t22.5 6t10.5 0.5z" />
    <glyph glyph-name="A" unicode="A" horiz-adv-x="660" 
d="M59 -11l319 401l11.5 -23l29.5 -59t39 -80.5t41 -88t35 -80.5t21 -59h117q-19 9 -42.5 47t-51 93.5t-57 123.5t-59.5 138t-59.5 137t-56.5 121q-2 4 -20.5 5.5t-43 2.5t-50.5 1q-25 0 -41 -0.5t-17 -0.5q33 -1 59.5 -25.5t45 -54t28.5 -54l10 -24.5q-59 -29 -114.5 -81
t-94.5 -120t-55 -149.5t6 -170.5zM133 107q-4 -5 -7.5 16.5t-1 58t13 80.5t34.5 84q20 34 46 63t49.5 49t40.5 28.5t20 2.5l42 -85z" />
    <glyph glyph-name="B" unicode="B" horiz-adv-x="573" 
d="M94 0l32 -1.5t80 1.5t103.5 14t103.5 36.5t80 68.5t32 109q0 52 -18 88.5t-45.5 60.5t-60.5 37t-62 20t-50 8.5t-26 2.5q24 6 50 19t47 31.5t33.5 43.5t9.5 56q-4 40 -33 57.5t-68 17.5q-40 1 -81.5 -12t-68.5 -39l-7.5 11.5t-24.5 22t-45.5 15t-71.5 -9.5q-3 -1 11 -2
t32 -10.5t33 -31t15 -62.5v-552zM165 415q0 11 20.5 15t51 -0.5t66 -18t66.5 -38t51.5 -60.5t21.5 -85q1 -54 -19 -92t-51 -62.5t-67 -37t-67 -16.5t-52 -0.5t-21 11.5v384zM165 565q0 17 -3.5 29l-3.5 12q20 20 46 29.5t45 9.5q15 0 29.5 -5t26.5 -14.5t19 -23t7 -29.5
q0 -32 -12.5 -53.5t-30.5 -36t-40 -22t-40 -10t-30.5 -1t-12.5 4.5v110z" />
    <glyph glyph-name="C" unicode="C" horiz-adv-x="740" 
d="M462 660q-114 0 -191 -32t-123.5 -81t-66.5 -108t-20 -113q0 -79 25 -141t72 -104.5t114 -65t151 -22.5q53 0 95 10t73.5 24.5t53.5 30.5t35 27v70q-27 -39 -59 -65t-65.5 -42t-67.5 -23t-65 -7q-48 0 -97.5 17t-90 53.5t-66 95t-25.5 142.5q0 57 21.5 112.5t62 99
t99.5 70.5t135 27q24 0 53.5 -3t59.5 -11.5t57.5 -24t47.5 -39.5v103h-218z" />
    <glyph glyph-name="D" unicode="D" horiz-adv-x="676" 
d="M94 0q15 -4 37 -7t46.5 -5t49 -3t44.5 -1q66 0 131.5 22t117 66.5t83.5 111.5t32 157q0 60 -20 119.5t-59.5 107t-98.5 76.5t-138 29q-60 0 -102 -18.5t-64 -34.5l-7.5 11.5t-24.5 22t-45.5 15t-71.5 -9.5q-3 -1 11 -2t31.5 -10.5t32.5 -31t15 -62.5v-553zM319 648
q42 0 82.5 -21.5t73 -61t52.5 -96.5t20 -128q0 -88 -24.5 -150.5t-63.5 -103t-88.5 -59.5t-99.5 -19q-13 0 -28.5 2t-30 5t-27 7t-19.5 8v535q0 17 -3.5 29l-3.5 12q12 9 26 16.5t32.5 13t43 8.5t58.5 3z" />
    <glyph glyph-name="E" unicode="E" horiz-adv-x="738" 
d="M471 660q-98 0 -174 -23.5t-128.5 -67.5t-80 -107.5t-27.5 -143.5q0 -78 27.5 -140t75.5 -105t112.5 -66t138.5 -23q40 0 78.5 8t72.5 22.5t62.5 33.5t49.5 41v79q-14 -29 -40 -57.5t-61 -51t-76.5 -36.5t-85.5 -14q-59 0 -108 23t-84 64t-54.5 98t-19.5 126q0 25 4.5 49
t10.5 42.5t10.5 29.5l4.5 11h360q43 0 73 -11.5t66 -35.5v111q-25 -20 -60.5 -33t-78.5 -13h-352q12 21 31 49.5t51.5 54t81.5 43.5t120 18q60 0 114 -18.5t93 -59.5v103h-207z" />
    <glyph glyph-name="F" unicode="F" horiz-adv-x="482" 
d="M94 -28q0 -3 12.5 9t26.5 23q11 8 22 12t11 6v305q0 11 21.5 17.5t51 5.5t61 -11.5t51.5 -33.5q2 -2 11 7.5t18 22t15.5 23.5t2.5 11h-232v267l14 1.5t34 3t43.5 1t43.5 -3.5q44 -8 72 -20.5t44 -23.5t21 -16.5t4 2.5q-4 18 1 32.5t10.5 25t7.5 16.5t-8 6h-412
q-9 0 -2 -3.5t19.5 -12.5t24 -24t11.5 -37v-611z" />
    <glyph glyph-name="G" unicode="G" horiz-adv-x="729" 
d="M646 -25v318h-185q-8 0 -2.5 -1.5t18.5 -6t29.5 -13t31.5 -22.5t25.5 -34.5t10.5 -48.5v-110q-5 -4 -16 -12t-29.5 -16t-44.5 -14t-60 -6q-72 0 -124 30t-85.5 76t-49.5 100.5t-16 104.5q0 61 18.5 117.5t53.5 100.5t86.5 70.5t116.5 26.5q64 0 116.5 -23.5t87.5 -67.5
v116h-204q-84 0 -151 -25t-114.5 -70t-72.5 -107.5t-25 -137.5q0 -65 24.5 -125.5t71 -107t114 -75t153.5 -28.5q47 0 82 7.5t50.5 13.5t17.5 7v-48q0 -47 -13.5 -80.5t-29 -55t-28.5 -32t-12 -11.5t12.5 2.5t29 12.5t37.5 24t36.5 36t28 50t11.5 65z" />
    <glyph glyph-name="H" unicode="H" horiz-adv-x="725" 
d="M197 351h370v-270q0 -6 -0.5 -17t-2 -23t-5.5 -23t-10 -18h108q-6 7 -9.5 18t-5.5 23t-2.5 23t-0.5 17v579h-184q0 -8 17.5 -13.5t38.5 -17.5t38.5 -34t17.5 -62v-164h-370v291h-184q0 -8 17.5 -13.5t38.5 -17.5t38.5 -34t17.5 -62v-452q0 -6 -0.5 -17t-2 -23t-5.5 -23
t-10 -18h108q-6 7 -9.5 18t-5.5 23t-2.5 23t-0.5 17v270z" />
    <glyph glyph-name="I" unicode="I" horiz-adv-x="283" 
d="M125 81q0 -6 -0.5 -17t-2 -23t-5.5 -23t-10 -18h108q-6 7 -9.5 18t-5.5 23t-2.5 23t-0.5 17v579h-184q0 -8 17.5 -13.5t38.5 -17.5t38.5 -34t17.5 -62v-452z" />
    <glyph glyph-name="J" unicode="J" horiz-adv-x="284" 
d="M126 81q0 -49 -10.5 -96.5t-24.5 -87t-28 -69t-21 -42.5q1 1 16 11.5t39 34t46.5 58t38.5 83t16 108.5v579h-184q0 -8 17.5 -13.5t38.5 -17.5t38.5 -34t17.5 -62v-452z" />
    <glyph glyph-name="K" unicode="K" horiz-adv-x="744" 
d="M123 81q0 -6 -0.5 -17t-2 -23t-5.5 -23t-10 -18h108q-6 7 -9.5 18t-5.5 23t-2.5 23t-0.5 17v324l23 -6t55.5 -20.5t67 -38t58.5 -58.5q23 -35 46.5 -77t49 -83t54 -77t62.5 -58q3 -2 22 11t40.5 29t39 30l17.5 14q-49 -8 -86 10t-69 51t-61.5 75.5t-63.5 83t-75.5 74
t-96.5 47.5q-4 1 10 7.5t38 19t54.5 32t61 47t57.5 63t43 79.5h-98q-10 -62 -38.5 -105t-63 -68t-69 -38.5t-55.5 -17.5t-23 -4v233h-183q0 -8 17.5 -13.5t38 -17.5t38 -34t17.5 -62v-452z" />
    <glyph glyph-name="L" unicode="L" horiz-adv-x="536" 
d="M123 81q0 -6 -0.5 -17t-2 -23t-5.5 -23t-10 -18l24.5 -0.5t62.5 -1t83 -2.5t86 -5t72.5 -8t40.5 -11l38 114q-23 -18 -55 -31t-67 -21t-70 -12t-63 -2.5t-45 8t-17 17.5v615h-182q0 -8 17 -13.5t38 -17.5t38 -34t17 -62v-452z" />
    <glyph glyph-name="M" unicode="M" horiz-adv-x="1251" 
d="M60 330q0 -78 28 -140.5t73 -106.5t102 -67.5t114 -23.5q53 0 102.5 19.5t80.5 69.5q-19 -17 -35 -29t-35.5 -20t-46 -11.5t-66.5 -3.5q-27 0 -66 18.5t-75.5 56.5t-62 97.5t-25.5 140.5q0 60 19.5 116t55 99.5t85.5 70t112 26.5q91 0 138.5 -56t47.5 -157v-429h72v457
q0 43 20 77t51.5 58t71.5 37t79 13q57 0 99 -27.5t69.5 -71.5t41 -100t13.5 -113q0 -62 -18.5 -119t-49.5 -101t-71.5 -70t-83.5 -26q-47 0 -80.5 10.5t-54.5 23t-31 23l-10 10.5q9 -18 25.5 -34.5t39.5 -29t51 -20.5t60 -8q48 0 103 21.5t101 64.5t76.5 107t30.5 148
q0 68 -24 129.5t-66 107.5t-99 73t-122 27q-40 0 -72 -7.5t-59.5 -22t-53.5 -37t-53 -52.5l-11.5 18.5t-39.5 41t-74.5 41t-116.5 18.5q-60 0 -123.5 -17.5t-116 -57t-86.5 -104t-34 -158.5z" />
    <glyph glyph-name="N" unicode="N" horiz-adv-x="718" 
d="M81 0h125q-12 11 -25.5 27.5t-24 37t-17.5 44t-7 49.5v418l463 -549q8 -9 16.5 -20t13.5 -11t6.5 11t1.5 18v635h-102q0 -8 12 -13.5t26.5 -17.5t26.5 -35t12 -64v-418l-451 548h-138q-17 0 -15.5 -2.5t11.5 -6t22.5 -7t17.5 -6.5q15 -8 26 -16t26 -24v-497
q0 -31 -6 -54.5t-20 -46.5z" />
    <glyph glyph-name="O" unicode="O" horiz-adv-x="830" 
d="M424 676q-68 0 -133.5 -21.5t-116.5 -65t-82.5 -108t-31.5 -151.5t31.5 -151.5t82.5 -108t116.5 -65t133.5 -21.5t133.5 21.5t116.5 65t82.5 108t31.5 151.5t-31.5 151.5t-82.5 108t-116.5 65t-133.5 21.5zM424 9q-52 0 -101.5 20t-88.5 60t-62.5 100.5t-23.5 140.5
q0 81 23.5 141t62.5 100t88.5 60t101.5 20t101.5 -20t88.5 -60t62.5 -100.5t23.5 -140.5q0 -81 -23.5 -141t-62.5 -100t-88.5 -60t-101.5 -20z" />
    <glyph glyph-name="P" unicode="P" horiz-adv-x="534" 
d="M94 81q0 -6 -0.5 -16.5t-2 -22.5t-5.5 -23.5t-10 -18.5h107q-6 7 -9.5 18.5t-5 23.5t-2 22.5t-0.5 16.5v182l24.5 5.5t62 18t80.5 33.5t80.5 52t62 73t24.5 97q0 32 -14.5 56.5t-38.5 41t-54.5 24.5t-61.5 8q-56 0 -101 -18.5t-75 -54.5l-4.5 11t-18.5 23t-40.5 20.5
t-71.5 3.5q-4 0 7 -5.5t26 -19t28 -37t13 -60.5v-454zM412 542q0 -54 -18 -93.5t-45.5 -67t-59.5 -44.5t-59.5 -25.5t-45.5 -9.5t-18 2v251q0 17 12 33.5t31.5 29.5t44 21t48.5 8q21 0 41 -8t35.5 -22.5t24.5 -33.5t9 -41z" />
    <glyph glyph-name="Q" unicode="Q" horiz-adv-x="830" 
d="M627 36q30 21 59 47t51.5 61t36.5 80.5t14 105.5q0 87 -31.5 151.5t-82.5 108t-116.5 65t-133.5 21.5t-133.5 -21.5t-116.5 -65t-82.5 -108t-31.5 -151.5q0 -93 33.5 -159t86 -107.5t117.5 -60.5t127 -19q55 0 99 10.5t78 29.5l15.5 -5.5t34.5 -17t35.5 -28t17.5 -37.5
q0 -6 15 3t38 13q14 2 26.5 0.5t21 -3t13 -2t1.5 3.5q-16 23 -48 39.5t-64 26.5t-56 14.5zM573 56q-2 1 -13.5 7t-28 15.5t-26.5 16.5q-18 13 -25 30t-9.5 29.5t-4 17t-7.5 -5.5q-9 -15 -28.5 -19t-38.5 -4.5t-31 0.5t-6 -3q25 -19 59.5 -36.5t65.5 -31t52.5 -21.5l21.5 -8
q-24 -15 -61 -24.5t-69 -9.5q-44 0 -92.5 17.5t-89 55.5t-67.5 99.5t-27 148.5q0 81 23.5 141t62.5 100t88.5 60t101.5 20t101.5 -20t88.5 -60t62.5 -100.5t23.5 -140.5q0 -53 -10 -95.5t-27 -75.5t-40 -58.5t-50 -44.5z" />
    <glyph glyph-name="R" unicode="R" horiz-adv-x="610" 
d="M94 81q0 -6 -0.5 -16.5t-2 -22.5t-5.5 -23.5t-10 -18.5h107q-6 7 -9.5 18.5t-5 23.5t-2 22.5t-0.5 16.5v202q0 9 10 7t25 -10.5t32 -22.5t31 -30q9 -10 32.5 -41t54 -67t64 -69.5t60.5 -49.5h152q-43 10 -79.5 34t-69.5 55t-62 65.5t-58 66t-57.5 56t-59.5 34.5
q2 1 26 9.5t62 28.5t74 48.5t62 68t26 88.5q0 29 -13.5 51t-36 37t-53.5 22.5t-65 7.5q-42 0 -86 -18.5t-82 -54.5l-4.5 11t-18.5 23t-40.5 20.5t-71.5 3.5q-4 0 7 -5.5t26 -19t28 -37t13 -60.5v-454zM403 544q4 -54 -20 -93t-58.5 -63.5t-71.5 -39t-61 -19.5t-26 -5v231
q0 17 11 31.5t29 25t41 16.5t46 6q20 0 39.5 -5t34.5 -16t24.5 -28t11.5 -41z" />
    <glyph glyph-name="S" unicode="S" horiz-adv-x="556" 
d="M72 28q43 -18 89.5 -27.5t83.5 -9.5q131 0 197 56.5t66 151.5q0 42 -18.5 69t-48.5 44t-68 28t-78.5 20t-78.5 20t-68 29t-48.5 45t-18.5 70q0 31 18 53.5t46 36.5t63 21t68 7q55 0 90.5 -19t57 -42t33 -43.5t18.5 -24.5q0 25 6 45t12.5 33.5t11.5 21t3 8.5
q-54 23 -114 34.5t-118 11.5q-50 0 -94.5 -11.5t-78.5 -35.5t-53.5 -61t-19.5 -88q0 -40 18 -67t47.5 -45.5t67.5 -30.5t77 -22t77 -20.5t67.5 -25.5t47.5 -37.5t18 -56.5q0 -38 -14.5 -65.5t-39.5 -46.5t-58.5 -28t-70.5 -9q-36 0 -61.5 9.5t-43.5 24t-29.5 31t-18 31
t-9.5 24t-4 8.5q-5 -2 -5 -8q0 -5 0.5 -13t1.5 -18t-1 -21q-3 -14 -8 -24t-10 -17t-7.5 -11t0.5 -5z" />
    <glyph glyph-name="T" unicode="T" horiz-adv-x="715" 
d="M387 81v550l28 1t66 -4t77.5 -20t62.5 -47q2 -3 5 2.5t7 15t9 20t11 17.5q7 9 19 20t20 17t9 7h-700q-1 0 4.5 -3.5t13 -9.5t16 -14t14.5 -17t11 -20t9 -20t7 -13.5t5 -1.5q23 32 62.5 47t77.5 20t66 4l28 -1v-550q0 -6 -0.5 -17t-2 -23t-5 -23t-9.5 -18h106
q-6 7 -9.5 18t-5 23t-2 23t-0.5 17z" />
    <glyph glyph-name="U" unicode="U" horiz-adv-x="732" 
d="M60 303q0 -55 14.5 -111t49 -101.5t92.5 -74t146 -28.5q54 0 94.5 16.5t66.5 35t39 31t13 4.5v-75h72v660h-142q-9 0 -5 -4t13.5 -10.5t21 -14.5t17.5 -15q11 -13 17 -31t6 -38v-355q0 -27 -16.5 -57.5t-45 -55.5t-67.5 -41.5t-84 -16.5q-38 0 -76 15t-68.5 48.5t-50 87
t-19.5 131.5q0 68 11.5 121t28 93t34 67t30 44t16.5 24.5t-8 7.5h-138q-10 0 -8.5 -4.5t9.5 -12.5t19.5 -17.5t21.5 -19.5t15 -19.5t1 -16.5q-7 -11 -26.5 -35.5t-40.5 -60t-37 -79t-16 -92.5z" />
    <glyph glyph-name="V" unicode="V" horiz-adv-x="708" 
d="M0 660q-8 0 0 -8t30 -37t56 -85t79 -151q49 -105 82 -186.5t54 -133t34 -70.5t22 2q79 171 143 297t109 208.5t67 123t17 40.5h-116q-15 0 -7.5 -5t20 -16.5t23 -29.5t1.5 -44q-7 -20 -27.5 -62.5t-47 -94.5t-56 -107t-54 -100.5t-40.5 -74.5l-16 -29l-12 22.5
t-30.5 60.5t-42.5 87t-47.5 103t-44.5 108t-35 102q-7 23 1 38.5t16 24.5t9 13t-18 4h-169z" />
    <glyph glyph-name="W" unicode="W" horiz-adv-x="1050" 
d="M550 56l11.5 -10.5t31.5 -23.5t46.5 -23.5t56.5 -10.5q58 0 96 16.5t60.5 35t31 31t8.5 4.5v-75h72v660h-143q-9 0 -5 -4t14 -10.5t21.5 -14.5t17.5 -15q11 -13 17 -31t6 -38v-406q0 -23 -15.5 -44.5t-40 -38t-56.5 -25.5t-65.5 -6t-65.5 19.5t-56.5 51t-40 89
t-15.5 133.5q0 108 11 174.5t21 103t13.5 49.5t-10.5 13h-109q-10 0 -8.5 -4.5t9.5 -12.5t19.5 -17.5t21.5 -19.5t15 -19.5t1 -16.5q-7 -11 -19 -33t-24 -54t-20.5 -73.5t-8.5 -89.5q0 -59 13.5 -105t29 -78t29 -48.5l13.5 -16.5q-18 -18 -53 -31t-78 -15.5t-88 9.5
t-82.5 45.5t-61 91.5t-23.5 148q0 68 11.5 119.5t28 89.5t34 63t30 40t16.5 21.5t-8 6.5h-138q-10 0 -8.5 -4.5t9.5 -12.5t19.5 -17.5t21.5 -19.5t15 -19.5t1 -16.5q-7 -11 -26.5 -33t-40.5 -54t-37 -73.5t-16 -89.5q0 -59 17 -118t51.5 -106.5t88 -77.5t127.5 -30
q42 0 76 8t60 19t43.5 22.5t26.5 18.5z" />
    <glyph glyph-name="X" unicode="X" horiz-adv-x="701" 
d="M12 0h107q24 100 51.5 175t52 127t43 81t23.5 38q17 -22 50.5 -71t74.5 -109t84 -124.5t79 -116.5h112l-365 477q24 37 53 66.5t58 42.5t54.5 4t41.5 -49q1 -3 3 3.5t4.5 17.5t6.5 23.5t9 21.5q4 6 10.5 13t12.5 12.5t9.5 9t1.5 4.5q-41 16 -76 16q-34 0 -62.5 -13
t-53.5 -35.5t-47.5 -52t-44.5 -61.5q-18 20 -40 45.5t-48 47.5t-55 37t-59 15q-21 0 -37 -5t-26.5 -12t-16.5 -15.5t-9 -14.5q2 0 14 3t32.5 4t37.5 -4q19 -6 42 -23.5t46 -40t45 -48t39 -46.5l-15 -25t-38.5 -64.5t-53 -89t-58 -98.5t-53.5 -93t-39 -73z" />
    <glyph glyph-name="Y" unicode="Y" horiz-adv-x="733" 
d="M647 107v553h-142q-9 0 -5 -4t13.5 -10.5t21 -14.5t17.5 -15q11 -13 17 -31t6 -38v-406q0 -32 -31.5 -60.5t-79 -45t-103 -15.5t-103 29.5t-79 89.5t-31.5 164q0 68 11.5 121t28 93t34 67t30 44t16.5 24.5t-8 7.5h-138q-10 0 -8.5 -4.5t9.5 -12.5t19.5 -17.5t21.5 -19.5
t15 -19.5t1 -16.5q-7 -11 -26.5 -35.5t-40.5 -60t-37 -79t-16 -92.5q0 -59 17 -115.5t51.5 -100.5t88 -71.5t127.5 -27.5q63 0 107 13t71.5 28.5t40 28.5l12.5 13q0 -90 -25.5 -142.5t-65 -78t-85 -28.5t-85 7.5t-67 30t-28.5 37.5l-9.5 -7.5t-24.5 -17.5t-34 -21t-38 -17
q-4 -1 17.5 -9t58 -16t85 -13.5t99.5 -1.5t100 21t88 53t62.5 94t23.5 145z" />
    <glyph glyph-name="Z" unicode="Z" horiz-adv-x="744" 
d="M25 0l17 -19l22.5 20t59.5 44t84.5 45t97.5 24q39 2 67.5 -6t52 -22t44 -31.5t41.5 -35t45.5 -32t57.5 -21.5q11 -2 29.5 15.5t36 39.5t29.5 42t11 22q-2 3 -7.5 0t-15.5 -7t-24 -8t-33 -3q-38 2 -60 14.5t-44.5 29t-53.5 33t-87 25.5q-33 6 -65 2t-58 -10.5t-42 -13
l-16 -6.5l486 487q11 12 -2.5 15.5t-45 2.5t-78 -4.5t-100 -5t-111 0t-111.5 10.5q-20 3 -36 11t-27.5 16t-18 14t-6.5 5q-13 -29 -24.5 -48t-23.5 -34t-25.5 -29.5t-30.5 -34.5q-5 -5 8.5 0.5t41.5 14t68.5 16.5t90.5 8h342z" />
    <glyph glyph-name="bracketleft" unicode="[" horiz-adv-x="276" 
d="M64 -32h92l88 32h-116v642l28 -4l88 36h-120q-4 0 -16.5 -5t-26.5 -14q-6 -4 -9.5 -11t-5 -14t-2 -13t-0.5 -7v-642z" />
    <glyph glyph-name="backslash" unicode="\" horiz-adv-x="458" 
d="M341 66q1 -2 5.5 -13t10 -25t10 -28t5.5 -22h48q-5 6 -12.5 20l-15 28t-13 26t-6.5 14l-268 634h-83q-9 0 -6 -3.5t11 -8.5t17.5 -10.5t15.5 -9.5q7 -5 17 -17t20.5 -28t20 -32.5t14.5 -28.5z" />
    <glyph glyph-name="bracketright" unicode="]" horiz-adv-x="276" 
d="M175 670h-92l-88 -32h116v-642l-28 4l-88 -36h120q4 0 16.5 5t26.5 14q6 4 9.5 11t5 14t2 12.5t0.5 7.5v642z" />
    <glyph glyph-name="asciicircum" unicode="^" horiz-adv-x="400" 
d="M107 403l9 6t21 15.5t24 21t19 22.5l8.5 -7.5t21.5 -18.5t29.5 -22.5t31.5 -18.5l40 34q-26 9 -46.5 22.5t-35 26t-22 21.5l-7.5 9q-8 -14 -25 -32t-34.5 -33.5t-31 -26l-13.5 -10.5z" />
    <glyph glyph-name="underscore" unicode="_" horiz-adv-x="460" 
d="M84 -16l-84 -42h460l84 42h-460z" />
    <glyph glyph-name="grave" unicode="`" horiz-adv-x="300" 
d="M60 473q16 -11 38.5 -24t43.5 -23.5t36 -17t16 -4.5t-10.5 15t-28 29t-34.5 32.5t-30 26.5q-8 6 -16.5 3.5t-14 -9.5t-6.5 -15t6 -13z" />
    <glyph glyph-name="a" unicode="a" horiz-adv-x="428" 
d="M247 370q-45 0 -87.5 -18.5t-75 -51t-52 -75.5t-19.5 -91q0 -37 11 -63.5t28.5 -43.5t39.5 -25t44 -8q30 0 55 7.5t43.5 16t29 16l10.5 7.5q1 -2 10.5 -11t31.5 -20t51 -12q14 0 25.5 3.5t19 8.5t11 10t2.5 8q-1 1 -15.5 -2t-32 2t-31.5 26.5t-14 72.5v178q0 25 6 39.5
t17 25.5h-108zM174 26q-16 0 -32 6.5t-29.5 19.5t-22 33.5t-8.5 48.5q0 48 14 85.5t35.5 64t46.5 41.5t46.5 18.5t35.5 -5.5t14 -30v-209q0 -17 -8.5 -30t-22.5 -23t-32 -15t-37 -5z" />
    <glyph glyph-name="b" unicode="b" 
d="M12 178q0 -40 14.5 -74t40 -59.5t60.5 -40t77 -14.5q48 0 84.5 22.5t61 56t37 70.5t12.5 65q0 49 -17.5 82t-44 51.5t-58 24.5t-60.5 1.5t-51 -18t-29 -33.5q6 3 21.5 12t37 14.5t46.5 0.5t49 -31q20 -22 30.5 -53t11.5 -64.5t-7.5 -66.5t-25 -59t-41.5 -42.5t-57 -16.5
q-31 0 -53.5 15.5t-37.5 40t-23 55t-9 61.5q-2 33 8.5 63.5t27 60t35.5 58t34.5 56t25 54.5t5.5 54q-1 8 -6.5 7.5t-13.5 -4t-17.5 -8.5t-16.5 -6q-15 -3 -27 -2.5t-23.5 0t-24 -3.5t-28.5 -12q-5 -3 6 -6.5t27 -11t30 -21t14 -37.5q0 -15 -9 -28.5t-23 -28.5t-30 -32
t-30 -39t-23.5 -49.5t-9.5 -63.5z" />
    <glyph glyph-name="c" unicode="c" horiz-adv-x="407" 
d="M200 380q-24 0 -56 -10.5t-61 -34t-49 -61.5t-20 -94t16.5 -92.5t43 -58t60 -30.5t66.5 -9q46 0 77 15t50.5 33.5t28.5 35.5t9 22q-3 -2 -12 -13.5t-24.5 -25t-37.5 -24.5t-50 -12q-35 -1 -62.5 11t-48 33.5t-32.5 50.5t-15 64q-4 45 4 79t24.5 57.5t39.5 35.5t49 12
q23 0 37 -10.5t21 -24.5t8.5 -27.5t0.5 -20.5q0 -2 11.5 2t25.5 10.5t25 13t9 9.5q-26 33 -62.5 48.5t-75.5 15.5z" />
    <glyph glyph-name="d" unicode="d" horiz-adv-x="448" 
d="M202 379q-45 0 -80 -16.5t-59.5 -44t-37.5 -62.5t-13 -71q0 -41 12 -76.5t36 -61.5t59.5 -41.5t82.5 -15.5q27 0 50 7t39.5 15.5t25.5 15.5l9 7v-35h72q-7 12 -10.5 23t-3.5 38v396q0 24 4 44t8.5 34.5t6.5 23t-1 8.5q-4 0 -15.5 -9.5t-30 -22t-42.5 -24.5t-52 -16
q-5 0 4.5 -5t22.5 -14t25 -23t12 -33v-86q-1 2 -10 12t-37.5 21.5t-76.5 11.5zM202 363q21 0 43 -7.5t40 -20t29.5 -30t11.5 -37.5v-167q0 -18 -12 -35t-30 -30.5t-40 -21.5t-42 -8q-32 0 -55.5 16t-39 41.5t-23.5 57.5t-8 64t8 64t23.5 57.5t39 41t55.5 15.5z" />
    <glyph glyph-name="e" unicode="e" horiz-adv-x="393" 
d="M12 185q0 -43 15 -78.5t41.5 -61.5t61.5 -40.5t74 -14.5q35 0 64.5 11.5t50 26t31 27.5t7.5 16t-12 -3.5t-24 -15.5t-36 -17t-48 -8q-31 0 -59.5 11t-50 31.5t-34 50t-12.5 65.5q0 34 3 51t8 35h252q3 0 -2.5 17t-23 37.5t-49 37.5t-80.5 17q-37 0 -69 -14.5t-56 -40.5
t-38 -61.5t-14 -78.5zM99 289q5 13 12.5 26.5t18 24t25 17.5t34.5 7q19 0 34 -7t26 -17.5t18 -24t12 -26.5h-180z" />
    <glyph glyph-name="f" unicode="f" horiz-adv-x="307" 
d="M52 -33l58 46v298q0 2 7 3t18 1q12 0 25.5 -2t26.5 -7q9 -3 23.5 -4t29.5 1t28.5 8.5t20.5 17.5q3 6 0 5t-12.5 -2t-26 -0.5t-40.5 9.5q-16 6 -33.5 2.5t-32.5 -8.5t-24.5 -8.5t-9.5 1.5v97q0 44 15 72t34.5 40t38 8t24.5 -24q3 -9 2 -20.5t-2.5 -21.5t-3 -16t-0.5 -3
q13 27 29.5 37.5t30 12.5t22 -0.5t7.5 0.5q-12 22 -33 37.5t-47.5 20.5t-56 -3.5t-58.5 -35.5q-12 -11 -24.5 -13t-27 -0.5t-29.5 4t-31 1.5q-5 0 2.5 -6.5t18.5 -19t21 -30.5t10 -42v-456z" />
    <glyph glyph-name="g" unicode="g" horiz-adv-x="455" 
d="M6 345h193q-42 -10 -76 -30t-58.5 -47t-37.5 -61t-13 -72q0 -66 40.5 -105.5t125.5 -39.5q24 0 43.5 7t35.5 17t28 21.5t21 20.5q2 -98 -18 -155t-50.5 -80.5t-64.5 -18.5t-59 31q-19 19 -20.5 42t4 42t11.5 31.5t2 12.5q-13 -2 -22.5 -16t-19.5 -30.5t-22.5 -32
t-31.5 -21.5q-2 -1 7 -12t27.5 -25t44.5 -26.5t58 -15t69 9t76 45.5q32 28 51 74.5t28.5 100t11.5 107.5t0 98t-6 72t-6 28q-4 0 -6.5 -11.5t-5.5 -31t-8 -45t-13 -54.5q-9 -30 -26.5 -60t-40 -54t-48 -39.5t-50.5 -15.5q-26 0 -44.5 13.5t-30 33t-17 42t-5.5 40.5
q0 43 13 81.5t38.5 67t62.5 45t85 16.5h96l12 25h-227q-25 0 -41 6.5t-25.5 14t-14 13t-5.5 3.5q-13 -15 -31 -26.5t-31.5 -19.5t-18 -12t9.5 -4z" />
    <glyph glyph-name="h" unicode="h" horiz-adv-x="464" 
d="M52 420v-376q0 -24 -14 -44h86q-7 12 -10.5 21t-3.5 23v232q0 18 17.5 35.5t43.5 27t56.5 8.5t56 -20t42.5 -60t16 -110q-1 -32 -5.5 -71t-15.5 -86h60q7 34 12.5 75t6.5 82t-4.5 79t-21.5 68t-44 49t-71 22q-39 2 -67 -6t-46.5 -17t-27 -14t-8.5 3v116q0 24 4 44.5
t8.5 34.5t6.5 22.5t-1 8.5q-4 0 -17.5 -9.5t-33 -22.5t-43 -24.5t-46.5 -15.5q-5 -1 4.5 -5.5t23 -13.5t25 -23t11.5 -33z" />
    <glyph glyph-name="i" unicode="i" horiz-adv-x="220" 
d="M130 44v326h-121q-5 0 -2 -2.5t9.5 -5.5t14 -6t11.5 -4q7 -2 18.5 -15.5t11.5 -45.5v-247q0 -24 -14 -44h86q-7 12 -10.5 22t-3.5 22zM136 475q0 21 -13 31.5t-29 10.5t-29 -10.5t-13 -31.5t13 -31.5t29 -10.5t29 10.5t13 31.5z" />
    <glyph glyph-name="j" unicode="j" horiz-adv-x="221" 
d="M130 0v370h-120q-5 0 -2 -2.5t9.5 -5.5t14 -6t11.5 -4q7 -2 18 -15.5t11 -45.5v-291q0 -57 -10 -98.5t-21 -68.5t-18.5 -39.5t-2.5 -10.5q18 7 37 26t35.5 47.5t27 65t10.5 78.5zM131 475q0 21 -13 31.5t-29 10.5t-29 -10.5t-13 -31.5t13 -31.5t29 -10.5t29 10.5t13 31.5
z" />
    <glyph glyph-name="k" unicode="k" horiz-adv-x="450" 
d="M52 420v-376q0 -24 -14 -44h86q-7 12 -10.5 21t-3.5 23v181q0 3 17 7.5t42.5 3t54.5 -11.5t53 -36t38 -71.5t10 -116.5h58q6 75 -9 123.5t-39.5 75t-51.5 39t-44.5 14.5t-18.5 2q47 12 79 31.5t50 38t23.5 32.5t1.5 14h-89q-5 0 -4.5 -1.5t3.5 -5.5t6 -11.5t3 -19.5
q0 -14 -14 -24.5t-34 -18.5t-44 -13.5t-44 -8t-34 -2.5q-13 0 -13 3v189q0 24 4 44.5t8.5 34.5t6.5 22.5t-1 8.5q-4 0 -17.5 -9.5t-33 -22.5t-43 -24.5t-46.5 -15.5q-5 -1 4.5 -5.5t23 -13.5t25 -23t11.5 -33z" />
    <glyph glyph-name="l" unicode="l" horiz-adv-x="220" 
d="M130 44v413q0 25 4 45t8.5 34.5t7 22.5t-0.5 8q-4 0 -17.5 -9.5t-33.5 -22.5t-43.5 -24.5t-47.5 -15.5q-5 -1 5 -5.5t23 -13.5t25 -23t12 -33v-376q0 -24 -14 -44h86q-7 12 -10.5 22t-3.5 22z" />
    <glyph glyph-name="m" unicode="m" horiz-adv-x="689" 
d="M366 0q17 89 17 149t-6.5 96.5t-14.5 52l-8 15.5q9 11 33.5 22t53 12.5t57 -12.5t46.5 -52.5t21 -106.5t-20 -176h58q7 34 13 74.5t7 81.5t-4 79.5t-21 68.5t-43.5 49.5t-70.5 21.5q-26 1 -45.5 -1.5t-36 -8t-32 -13t-33.5 -16.5q-1 1 -7.5 10t-27.5 19t-56 10
q-30 0 -55 -8.5t-43 -16.5t-28 -12.5t-10 3.5v28q0 9 -11.5 8.5t-29.5 -3.5t-39.5 -6t-40.5 -1q-5 0 4.5 -5t22.5 -17t24.5 -31.5t11.5 -46.5v-223q0 -24 -14 -44h86q-7 12 -10.5 21t-3.5 23v232q0 15 12 30.5t31.5 26t43 14.5t46 -4t42 -30t30 -62.5t10.5 -102.5
q0 -61 -17 -148h58z" />
    <glyph glyph-name="n" unicode="n" horiz-adv-x="464" 
d="M52 267v-223q0 -24 -14 -44h86q-7 12 -10.5 21t-3.5 23v232q0 15 13.5 30.5t34 26t46.5 14t50.5 -4.5t45 -30t32 -62.5t10 -101.5t-20.5 -148h58q8 34 14 74.5t7 81t-4.5 79t-21.5 69t-44 49.5t-71 22q-38 2 -65.5 -6t-46.5 -17t-28 -14t-9 3v28q0 9 -11.5 8.5
t-29.5 -3.5t-39.5 -6t-40.5 -1q-5 0 4.5 -5t22.5 -17t24.5 -31.5t11.5 -46.5z" />
    <glyph glyph-name="o" unicode="o" horiz-adv-x="445" 
d="M402 185q0 49 -17 85.5t-44.5 61t-62.5 36.5t-71 12q-37 0 -72 -12t-62.5 -36.5t-44 -61t-16.5 -85.5t17 -85.5t44.5 -61t62.5 -36.5t71 -12q37 0 72 12t62.5 36.5t44 61t16.5 85.5zM207 364q32 0 56 -15.5t39.5 -40.5t23 -57.5t7.5 -65.5t-7.5 -65t-23 -57t-39.5 -40.5
t-56 -15.5t-55.5 15.5t-39.5 40.5t-23.5 57t-7.5 65t7.5 65.5t23 57.5t39.5 40.5t56 15.5z" />
    <glyph glyph-name="p" unicode="p" horiz-adv-x="474" 
d="M52 -209q0 -15 8 -12t21.5 14.5t31 24.5t35.5 17q3 0 -3 3t-13.5 11.5t-14.5 24t-7 40.5v124q1 -2 13 -12.5t41.5 -23t70.5 -12.5q49 0 86 16.5t62 43.5t37 62t12 73q0 43 -12.5 78.5t-37 61.5t-61.5 40.5t-86 14.5q-38 0 -68.5 -11t-45 -20.5t-16.5 -11.5
q-17 18 -36.5 26t-35.5 10t-25.5 -0.5t-7.5 -3.5q31 -20 41.5 -48.5t10.5 -64.5v-465zM110 278q0 14 11.5 29.5t29.5 28t40.5 20.5t43.5 8q33 0 57 -15.5t40 -40.5t23.5 -57.5t7.5 -65.5q0 -34 -8 -66.5t-23.5 -57.5t-39.5 -40t-57 -15q-25 0 -47.5 11t-40 26.5t-27.5 33
t-10 31.5v170z" />
    <glyph glyph-name="q" unicode="q" horiz-adv-x="472" 
d="M408 -148q4 1 2 4t-6.5 8.5t-8.5 14.5t-4 24v395q0 15 6.5 28t13 23t10 15t-1.5 5q-35 -3 -62.5 -1.5t-51.5 4t-47 5.5t-48 3q-48 0 -84.5 -17t-61 -44.5t-37 -62.5t-13.5 -71t10.5 -71t36 -62.5t61.5 -44.5t88 -17q41 0 70 12.5t41 23t13 12.5v-247q0 -8 6 -1.5t16 18.5
t23.5 25t28.5 19zM210 364q17 0 38.5 -8t40.5 -20.5t32 -28t13 -29.5v-170q0 -15 -13.5 -33t-32.5 -33t-40.5 -25.5t-37.5 -10.5q-32 0 -55.5 16t-39.5 41.5t-24 57.5t-8 64t8 64t24 57.5t39.5 41.5t55.5 16z" />
    <glyph glyph-name="r" unicode="r" horiz-adv-x="404" 
d="M52 50q0 -3 -0.5 -9.5t-1.5 -14t-3 -15t-5 -11.5h78q-3 4 -5 11t-3 14.5t-1.5 14.5t-0.5 10v105q14 0 30 -6.5t31 -16t27.5 -21t19.5 -20.5q22 -29 44.5 -52.5t51.5 -38.5q17 -9 38 -4t33 12.5t14 8.5q-23 0 -39 10t-30.5 25t-29 32.5t-34 34.5t-45.5 30.5t-63 19.5
q1 0 18.5 3t45.5 11t54 22.5t45 37.5t19 55q0 24 -10.5 40t-28 25.5t-39.5 13t-45 3.5q-32 0 -62 -10t-52 -30l-9 9t-30.5 15.5t-56.5 4.5q-2 0 4.5 -3t15.5 -11t17 -22t8 -36v-247zM271 298q0 -37 -19 -60t-45.5 -36t-53.5 -18t-43 -5v135q0 11 12 19.5t30 14t38.5 6
t38.5 -5t30 -17.5t12 -33z" />
    <glyph glyph-name="s" unicode="s" horiz-adv-x="363" 
d="M304 293q-5 31 -26.5 50.5t-51.5 28.5t-64 7t-62 -14t-47 -34.5t-19 -54.5q0 -38 16.5 -57.5t41.5 -29t54.5 -13.5t54.5 -11.5t41.5 -21.5t16.5 -45q0 -27 -13.5 -45.5t-34 -28.5t-44 -10.5t-43.5 10.5q-18 9 -24.5 31.5t-7.5 45.5t0 40t0 16q-17 -14 -32.5 -22.5
t-28 -13t-20 -7t-7.5 -3.5q2 -42 26.5 -68.5t59 -40t74.5 -13.5t74 12.5t56.5 37t22.5 59.5q0 34 -16.5 52.5t-41.5 29t-54.5 16.5t-54.5 14.5t-41.5 23t-16.5 42.5q0 40 17.5 60t59.5 20q21 0 38.5 -11t26.5 -28.5t7.5 -40t-16.5 -45.5q-1 -2 4.5 3t13 13t15.5 16.5
t13 14.5q9 11 21 12t12 3z" />
    <glyph glyph-name="t" unicode="t" horiz-adv-x="423" 
d="M44 143q0 -43 14.5 -72t37.5 -47t52 -26t59 -8q26 0 50 6t43.5 15.5t33.5 21.5t19 23q-9 -5 -25 -12.5t-35.5 -14t-41.5 -10t-44 0.5q-17 3 -34 13t-30.5 25.5t-21.5 37t-8 47.5q0 34 13 70t35.5 65.5t52.5 48t64 18.5h113l12 25h-255q-35 0 -54.5 6.5t-30 13.5t-14 12
t-4.5 2q-5 -13 -17.5 -23.5t-23 -18.5t-14.5 -12.5t7 -4.5h206q-10 -4 -36 -18t-53.5 -39t-48.5 -61t-21 -84z" />
    <glyph glyph-name="u" unicode="u" 
d="M12 160q0 -36 10 -66.5t31 -53t53 -35t76 -12.5q38 0 64.5 10t43 20.5t24 18t7.5 3.5v-45h72q-7 10 -10.5 19.5t-3.5 24.5v281q0 13 2.5 23t11.5 22h-115q-8 0 -2.5 -3t15.5 -11t20 -21t10 -33v-218q0 -18 -18 -32t-44.5 -20.5t-57.5 -4.5t-57.5 16.5t-44.5 43t-18 73.5
q0 61 11.5 101.5t23.5 64.5t19 34t-3 10h-111q-9 0 -2 -6.5t18 -18t19.5 -26.5t2.5 -32q-2 -7 -10 -16.5t-16 -24.5t-14.5 -36t-6.5 -50z" />
    <glyph glyph-name="v" unicode="v" horiz-adv-x="418" 
d="M0 370q-4 0 0.5 -4.5t16.5 -20.5t31 -47t43 -83q27 -57 45 -104t30 -77.5t18.5 -43.5t11.5 -2q43 94 78 165.5t59.5 119.5t37 72.5t10.5 24.5h-87q-8 0 -4 -3t11 -10t12.5 -17t1.5 -23t-16.5 -43t-28 -64t-30.5 -67t-24 -53t-10 -22l-10.5 18.5t-25 49t-30 69t-24.5 78.5
q-5 22 -0.5 38t9.5 27l7.5 16.5t-7.5 5.5h-125z" />
    <glyph glyph-name="w" unicode="w" horiz-adv-x="645" 
d="M288 57q1 -2 11 -16.5t35.5 -31t63.5 -16.5q31 0 55.5 10t42 20.5t26.5 18t9 3.5v-45h72q-8 10 -11 19.5t-3 24.5v281q0 18 4 27.5t10 17.5h-115q-5 0 1 -3.5t15.5 -11.5t18 -21t8.5 -32v-218q0 -15 -15 -27.5t-37.5 -19.5t-48.5 -5.5t-48.5 14.5t-37.5 40.5t-15 72.5
q0 61 10.5 102t21.5 65t17 34t-4 10h-111q-9 0 -1.5 -6.5t18 -18t19 -26.5t2.5 -32q-2 -7 -8.5 -20.5t-13 -30.5t-12.5 -37t-7 -40q-1 -25 3.5 -46t9 -31.5t5.5 -11.5q-10 -13 -28.5 -22.5t-40 -13t-44.5 0t-41.5 17.5t-30.5 40t-12 67q0 61 12.5 102t26 65t21.5 34t-2 10
h-111q-9 0 -2 -6.5t18.5 -18t20 -26.5t2.5 -32q-2 -7 -11 -17t-19 -25t-17.5 -36t-7.5 -50q0 -38 10 -68.5t28.5 -52t44 -33.5t55.5 -12q26 0 48 6.5t39.5 16.5t30 21t20.5 20z" />
    <glyph glyph-name="x" unicode="x" horiz-adv-x="478" 
d="M-108 -213q17 -2 50.5 9.5t75 50.5t88 112.5t90.5 195.5q2 -5 10 -18.5t20.5 -31.5t28.5 -38t35 -36t40 -27t43 -11q41 0 80 63q1 1 -6 6.5t-16.5 13t-20 15.5t-17.5 16q6 -9 9 -23.5t1.5 -28t-9 -23.5t-23.5 -10q-15 0 -32.5 22t-36.5 54.5t-38.5 70t-37.5 67.5
q3 7 11.5 21.5t20.5 29t27.5 26.5t31.5 15.5t31.5 -4.5t29.5 -33q2 -4 12 4t21 20t19.5 22.5t6.5 11.5q-20 11 -39 16t-36 5q-34 0 -61 -13t-46.5 -30.5t-31 -35.5t-14.5 -27q-6 10 -18.5 27t-30 33t-39 28t-45.5 12q-37 0 -72 -45q-7 -9 -2.5 -5.5t16 8t29 5.5t37.5 -14
q15 -11 31 -30.5t28.5 -39t21 -34l8.5 -14.5q-46 -103 -85.5 -173.5t-72 -115.5t-56.5 -69.5t-40 -35t-23 -12.5t-4 -2z" />
    <glyph glyph-name="y" unicode="y" 
d="M12 160q0 -36 10 -67t31 -54t53 -36t76 -13q38 0 64.5 10.5t43 21.5t24 19t7.5 4v-18q0 -63 -18 -107t-44 -69.5t-56 -33.5t-55 0t-39.5 32t-10.5 62l-60 -74q13 -27 43 -38.5t68 -8.5t78.5 20.5t74.5 49.5t55.5 78.5t21.5 107.5v279q0 18 5 29t9 16h-115q-5 0 1 -3
t15.5 -11t18 -21t8.5 -33v-218q0 -18 -18 -32t-44.5 -20.5t-57.5 -4.5t-57.5 16.5t-44.5 43t-18 73.5q0 61 11.5 101.5t23.5 64.5t19 34t-3 10h-111q-9 0 -2 -6.5t18 -18t19.5 -26.5t2.5 -32q-2 -7 -10 -16.5t-16 -24.5t-14.5 -36t-6.5 -50z" />
    <glyph glyph-name="z" unicode="z" horiz-adv-x="426" 
d="M2 12l16 -16l13 12t34 26t48 26.5t55 13.5q32 1 51.5 -11t36 -28t33.5 -31.5t44 -21.5q5 -1 17.5 12.5t25 30t21.5 31.5t8 17q-2 2 -5 0.5l-8 -4t-13 -5t-18 -2.5q-21 1 -33 8t-24 16.5t-29 18.5t-48 14q-14 2 -33.5 -2t-36.5 -10t-29 -11.5l-12 -5.5l269 267
q13 13 -8 13q-20 0 -59 -3.5t-88 -5.5t-92 7q-20 4 -34 14l-14 10q-7 -16 -14 -27t-15 -20t-17.5 -18.5t-19.5 -21.5q-2 -3 5.5 0t23 7.5t37.5 9t49 4.5h177z" />
    <glyph glyph-name="braceleft" unicode="{" horiz-adv-x="240" 
d="M86 324q2 1 16 10.5t30 31t16 50.5v186q0 29 14 46.5t29 27.5t26 13t5 3q-27 0 -53 -6t-47 -19t-33.5 -34.5t-12.5 -52.5v-164q0 -29 -15 -50.5t-28 -31t-15 -10.5q2 -1 15 -10.5t28 -31t15 -50.5v-164q0 -31 12.5 -52.5t33.5 -34.5t47 -19t53 -6q6 0 -5 3t-26 13
t-29 27.5t-14 46.5v186q0 29 -16 50.5t-30 31t-16 10.5z" />
    <glyph glyph-name="bar" unicode="|" horiz-adv-x="147" 
d="M34 0h58v691h-58v-691z" />
    <glyph glyph-name="braceright" unicode="}" horiz-adv-x="240" 
d="M85 416q0 -29 16 -50.5t30 -31t16 -10.5q-2 -1 -16 -10.5t-30 -31t-16 -50.5v-186q0 -29 -14 -46.5t-29 -27.5t-26 -13t-5 -3q27 0 53 6t47 19t33.5 34.5t12.5 52.5v164q0 29 15 50.5t28 31t15 10.5q-2 1 -15 10.5t-28 31t-15 50.5v164q0 31 -12.5 52.5t-33.5 34.5
t-47 19t-53 6q-6 0 5 -3t26 -13t29 -27.5t14 -46.5v-186z" />
    <glyph glyph-name="asciitilde" unicode="~" horiz-adv-x="418" 
d="M71 401q21 38 42.5 54t45.5 16q18 0 31 -4t25 -9t25 -9t31 -4q20 0 36.5 6.5t24 12.5t8.5 7q-18 -37 -39 -52.5t-47 -15.5q-18 0 -29.5 4t-22 9t-22 9t-29.5 4q-20 0 -39.5 -7.5t-29.5 -13.5t-11 -7z" />
    <glyph glyph-name="quotesinglbase" unicode="&#x201a;" horiz-adv-x="108" 
d="M66 97q-9 9 -20.5 7.5t-18.5 -9.5t-7 -19t14 -21q11 -8 7 -21.5t-15 -33.5q-4 -7 7 2.5t23 26t17.5 35.5t-7.5 33z" />
    <glyph glyph-name="florin" unicode="&#x192;" horiz-adv-x="670" 
d="M0 560v-560h560v560h-560z" />
    <glyph glyph-name="quotedblbase" unicode="&#x201e;" horiz-adv-x="173" 
d="M150 97q-9 9 -20.5 7.5t-18.5 -9.5t-7 -19t14 -21q11 -8 7 -21.5t-15 -33.5q-4 -7 7 2.5t23 26t17.5 35.5t-7.5 33zM66 97q-9 9 -20.5 7.5t-18.5 -9.5t-7 -19t14 -21q12 -8 7.5 -21.5t-15.5 -33.5q-4 -7 7 2.5t23 26t17.5 35.5t-7.5 33z" />
    <glyph glyph-name="ellipsis" unicode="&#x2026;" horiz-adv-x="540" 
d="M30 35q0 -17 12.5 -29.5t29.5 -12.5t29.5 12.5t12.5 29.5t-12.5 29.5t-29.5 12.5t-29.5 -12.5t-12.5 -29.5zM208 35q0 -17 12.5 -29.5t29.5 -12.5t29.5 12.5t12.5 29.5t-12.5 29.5t-29.5 12.5t-29.5 -12.5t-12.5 -29.5zM388 35q0 -17 12.5 -29.5t29.5 -12.5t29.5 12.5
t12.5 29.5t-12.5 29.5t-29.5 12.5t-29.5 -12.5t-12.5 -29.5z" />
    <glyph glyph-name="dagger" unicode="&#x2020;" horiz-adv-x="152" 
d="M80 660h-22v-77h-30v-15h30v-188q17 26 24.5 48.5t9.5 54.5q0 12 -1.5 27t-4 28t-4.5 21.5l-2 8.5h30v15h-30v77z" />
    <glyph glyph-name="daggerdbl" unicode="&#x2021;" horiz-adv-x="152" 
d="M80 547v49h30v14h-30v50h-22v-50h-30v-14h30v-49h-30v-15h30v-188q17 26 24.5 48.5t9.5 54.5q0 12 -1.5 27t-4 28t-4.5 21.5l-2 8.5h30v15h-30z" />
    <glyph glyph-name="circumflex" unicode="&#x2c6;" horiz-adv-x="400" 
d="M107 404l9 6t21 15.5t24 21t19 22.5l8.5 -7.5t21.5 -18.5t29.5 -22.5t31.5 -18.5l40 34q-26 9 -46.5 22.5t-35 26t-22 21.5l-7.5 9q-8 -14 -25 -32t-34.5 -33.5t-31 -26l-13.5 -10.5z" />
    <glyph glyph-name="Scaron" unicode="&#x160;" horiz-adv-x="556" 
d="M72 28q43 -18 89.5 -27.5t83.5 -9.5q131 0 197 56.5t66 151.5q0 42 -18.5 69t-48.5 44t-68 28t-78.5 20t-78.5 20t-68 29t-48.5 45t-18.5 70q0 31 18 53.5t46 36.5t63 21t68 7q55 0 90.5 -19t57 -42t33 -43.5t18.5 -24.5q0 25 6 45t12.5 33.5t11.5 21t3 8.5
q-54 23 -114 34.5t-118 11.5q-50 0 -94.5 -11.5t-78.5 -35.5t-53.5 -61t-19.5 -88q0 -40 18 -67t47.5 -45.5t67.5 -30.5t77 -22t77 -20.5t67.5 -25.5t47.5 -37.5t18 -56.5q0 -38 -14.5 -65.5t-39.5 -46.5t-58.5 -28t-70.5 -9q-36 0 -61.5 9.5t-43.5 24t-29.5 31t-18 31
t-9.5 24t-4 8.5q-5 -2 -5 -8q0 -5 0.5 -13t1.5 -18t-1 -21q-3 -14 -8 -24t-10 -17t-7.5 -11t0.5 -5zM379 802l-9 -6t-21 -15.5t-24 -21t-19 -22.5l-8.5 7.5t-21.5 18.5t-29.5 22t-31.5 19l-40 -34q33 -12 59.5 -31.5t38 -32.5t13.5 -15q8 14 25 32t34.5 33.5t31 26
l13.5 10.5z" />
    <glyph glyph-name="guilsinglleft" unicode="&#x2039;" horiz-adv-x="286" 
d="M229 340l-68 -10q-5 -19 -16.5 -42.5t-31 -46.5t-47.5 -43.5t-65 -32.5q1 -1 16 -10.5t39.5 -28t49.5 -40t46.5 -46.5t29.5 -47l61 15q-10 27 -35 56t-51.5 53t-47 39.5l-20.5 15.5q27 10 49.5 30t40.5 43.5t31 48.5t19 46z" />
    <glyph glyph-name="OE" unicode="&#x152;" horiz-adv-x="1380" 
d="M424 9q-52 0 -101.5 20t-88.5 60t-62.5 100.5t-23.5 140.5q0 81 23.5 141t62.5 100t88.5 60t101.5 20t101.5 -20t88.5 -60t62.5 -100.5t23.5 -140.5q0 -81 -23.5 -141t-62.5 -100t-88.5 -60t-101.5 -20zM743 151q45 -81 122.5 -124t180.5 -43q40 0 78.5 8t72.5 22.5
t62.5 33.5t49.5 41v79q-14 -29 -40 -57.5t-61 -51t-76.5 -36.5t-85.5 -14q-59 0 -108 23t-84 64t-54.5 98t-19.5 126q0 25 4.5 49t10.5 42.5t10.5 29.5l4.5 11h360q43 0 73 -11.5t66 -35.5v111q-25 -20 -60.5 -33t-78.5 -13h-352q12 21 31 49.5t51.5 54t81.5 43.5t120 18
q60 0 114 -18.5t93 -59.5v103h-207q-132 0 -218.5 -42t-134.5 -120q-24 45 -59 78t-78 55.5t-91 33.5t-97 11q-68 0 -133.5 -21.5t-116.5 -65t-82.5 -108t-31.5 -151.5t31.5 -151.5t82.5 -108t116.5 -65t133.5 -21.5q48 0 94.5 10.5t88.5 31.5t77 52t59 73z" />
    <glyph glyph-name="quoteleft" unicode="&#x2018;" horiz-adv-x="101" 
d="M18 563q9 -9 20.5 -7.5t18.5 9.5t6.5 19t-13.5 21q-11 8 -7 21.5t15 33.5q2 4 -2 1.5t-11.5 -10.5t-16 -19.5t-14 -23.5t-5.5 -24t9 -21z" />
    <glyph glyph-name="quoteright" unicode="&#x2019;" horiz-adv-x="108" 
d="M66 652q-9 9 -20.5 7.5t-18.5 -9.5t-7 -19t14 -21q11 -8 7 -21.5t-15 -33.5q-4 -7 7 2.5t23 26t17.5 35.5t-7.5 33z" />
    <glyph glyph-name="quotedblleft" unicode="&#x201c;" horiz-adv-x="173" 
d="M18 563q9 -9 20.5 -7.5t18.5 9.5t6.5 19t-13.5 21q-11 8 -7 21.5t15 33.5q2 4 -2 1.5t-11.5 -10.5t-16 -19.5t-14 -23.5t-5.5 -24t9 -21zM102 563q9 -9 20.5 -7.5t18.5 9.5t6.5 19t-13.5 21q-12 8 -7.5 21.5t15.5 33.5q2 4 -2 1.5t-11.5 -10.5t-16 -19.5t-14 -23.5
t-5.5 -24t9 -21z" />
    <glyph glyph-name="quotedblright" unicode="&#x201d;" horiz-adv-x="173" 
d="M150 652q-9 9 -20.5 7.5t-18.5 -9.5t-7 -19t14 -21q11 -8 7 -21.5t-15 -33.5q-4 -7 7 2.5t23 26t17.5 35.5t-7.5 33zM66 652q-9 9 -20.5 7.5t-18.5 -9.5t-7 -19t14 -21q12 -8 7.5 -21.5t-15.5 -33.5q-4 -7 7 2.5t23 26t17.5 35.5t-7.5 33z" />
    <glyph glyph-name="bullet" unicode="&#x2022;" horiz-adv-x="896" 
d="M838 344q0 104 -36 182t-94.5 130t-133 78t-153.5 26q-78 0 -152.5 -26t-133 -78t-94.5 -130t-36 -182t36 -182.5t94.5 -131.5t133 -80.5t153 -28t153 25t133 78.5t94.5 132.5t36 186.5zM19 344q0 99 32.5 173t85.5 124t121.5 76t141 29t143.5 -17t129 -62.5t97.5 -107
t48.5 -150.5t-19.5 -164.5t-87.5 -135.5t-143.5 -86t-186.5 -16q-76 9 -135.5 50t-96.5 99t-50 126t4 131.5t66 116t136 79.5q52 16 94.5 11.5t73 -20.5t52 -35.5t31 -33.5t10.5 -15q-18 -32 -25.5 -72.5t0 -77t32 -61.5t70.5 -25q40 0 61.5 20t27.5 46t-1 51.5t-23 37.5
q-22 16 -43.5 15.5t-37.5 -11t-23 -26.5t1 -29q0 1 2.5 6.5t10 12t20.5 7.5q11 1 20 -6.5t13 -19t2 -24.5t-14 -23q-12 -11 -27 -13.5t-28.5 1.5t-24 14t-13.5 25q-4 18 -3 39.5t9 41t24 35.5t43 24q21 6 28 18.5t7 25.5q0 14 -3 24l-3 10q57 -48 79 -106.5t14.5 -115.5
t-40 -107.5t-83.5 -81.5q-53 -33 -108 -39.5t-99 11t-71.5 57.5t-25.5 100q0 22 6 43t17 37t26 24.5t35 5.5q17 -2 27 -13.5t12 -25t-5 -26.5t-24 -19q-24 -9 -35.5 2.5t-14 24t-2.5 14.5q-18 -26 -14 -47.5t20 -35.5t39.5 -19t46 2.5t38.5 29t17 60.5q1 27 -8.5 47t-26 33
t-37.5 17.5t-44 0.5q-25 -5 -45 -20t-30 -26t-11 -13q-1 1 -6 9.5t-14.5 21t-19.5 18.5q-27 17 -59.5 16t-58 -16t-39 -41.5t-3.5 -61.5t35 -48.5t49.5 -10.5t40 21t7.5 46l-7.5 -6t-18 -9.5t-22 0t-19.5 22.5q-7 15 -1.5 28.5t16.5 22t26 11t28.5 -3.5t23 -22.5t9.5 -45.5
q0 -44 -14 -71t-30.5 -42t-30 -20l-13.5 -5q12 -48 41 -82t67.5 -55.5t83.5 -30t90.5 -4t87.5 21.5t75 47q66 61 103 130t41.5 139.5t-26 138t-99.5 124.5q-53 45 -120 64.5t-136 15t-134.5 -31t-116 -74t-80.5 -115t-28 -153.5q2 -89 31.5 -158t80.5 -116.5t120 -73
t149 -26.5q60 -1 113.5 15.5t94.5 40t71.5 48.5t45.5 41t16 17q-49 -84 -123.5 -130.5t-158 -59t-167.5 8.5t-151.5 72.5t-109.5 132.5t-42 188z" />
    <glyph glyph-name="endash" unicode="&#x2013;" horiz-adv-x="318" 
d="M42 266l-42 -42h226l42 42h-226z" />
    <glyph glyph-name="emdash" unicode="&#x2014;" horiz-adv-x="492" 
d="M42 266l-42 -42h401l42 42h-401z" />
    <glyph glyph-name="tilde" unicode="&#x2dc;" horiz-adv-x="477" 
d="M259 453q-21 8 -41 13t-39 1.5t-37.5 -18.5t-36.5 -47l11 6.5t29 12.5t40.5 7t45.5 -10q18 -9 37.5 -13.5t38 -0.5t36 19t31.5 44l-8 -6t-23 -11t-36 -6t-48 9z" />
    <glyph glyph-name="trademark" unicode="&#x2122;" horiz-adv-x="756" 
d="M156 369v220l11 0.5t26.5 -1.5t31.5 -8t25 -19q2 -2 4.5 7.5t7.5 14.5q5 6 12.5 12l7.5 6h-280q-1 0 6.5 -5t12.5 -13t8 -16t5 -6q9 13 24.5 19t31 8t26.5 1.5l11 -0.5v-220q0 -5 -1 -16t-6 -16h43q-5 5 -6 16t-1 16zM265 470q0 -32 11.5 -57t29.5 -42.5t40.5 -27
t45.5 -9.5q21 0 41 8t32 28q-8 -7 -14 -12t-14 -8t-18.5 -4.5t-26.5 -1.5q-11 0 -26.5 7.5t-30 23t-24.5 39t-10 56.5q0 24 7.5 46.5t21.5 39.5t34 27.5t45 10.5q36 0 55.5 -22t19.5 -63v-171h29v182q0 17 8 31t20.5 23.5t28 14.5t31.5 5q23 0 40 -11t28 -28.5t16.5 -40
t5.5 -44.5q0 -25 -7.5 -48t-20 -40.5t-28.5 -28t-34 -10.5q-24 0 -40.5 7t-22.5 13l-7 7q7 -14 26 -25.5t44 -11.5q19 0 41 8.5t41 26t31 43t12 59.5q0 27 -9.5 51.5t-26.5 42.5t-40 29t-49 11q-32 0 -52.5 -11.5t-42.5 -35.5q-1 2 -8.5 12.5t-30 22.5t-58.5 12
q-24 0 -49.5 -7t-46.5 -22.5t-34.5 -41.5t-13.5 -63z" />
    <glyph glyph-name="scaron" unicode="&#x161;" horiz-adv-x="363" 
d="M304 293q-5 31 -26.5 50.5t-51.5 28.5t-64 7t-62 -14t-47 -34.5t-19 -54.5q0 -38 16.5 -57.5t41.5 -29t54.5 -13.5t54.5 -11.5t41.5 -21.5t16.5 -45q0 -27 -13.5 -45.5t-34 -28.5t-44 -10.5t-43.5 10.5q-18 9 -24.5 31.5t-7.5 45.5t0 40t0 16q-17 -14 -32.5 -22.5
t-28 -13t-20 -7t-7.5 -3.5q2 -42 26.5 -68.5t59 -40t74.5 -13.5t74 12.5t56.5 37t22.5 59.5q0 34 -16.5 52.5t-41.5 29t-54.5 16.5t-54.5 14.5t-41.5 23t-16.5 42.5q0 40 17.5 60t59.5 20q21 0 38.5 -11t26.5 -28.5t7.5 -40t-16.5 -45.5q-1 -2 4.5 3t13 13t15.5 16.5
t13 14.5q9 11 21 12t12 3zM281 512l-9 -6t-21 -15.5t-24 -21t-19 -22.5l-8.5 7.5t-21.5 18.5t-29.5 22t-31.5 19l-40 -34q33 -12 59.5 -31.5t38 -32.5t13.5 -15q8 14 25 32t34.5 33.5t31 26l13.5 10.5z" />
    <glyph glyph-name="guilsinglright" unicode="&#x203a;" horiz-adv-x="286" 
d="M31 -4l68 10q4 19 16 42.5t31.5 46.5t47.5 43.5t65 32.5l-24.5 16t-55.5 41.5t-61 55.5t-40 59l-61 -15q10 -27 35 -56t51.5 -53t47 -39.5l20.5 -15.5q-27 -11 -49.5 -30.5t-40.5 -43t-31 -48.5t-19 -46z" />
    <glyph glyph-name="oe" unicode="&#x153;" horiz-adv-x="720" 
d="M421 289q5 13 12.5 26.5t18 24t25 17.5t34.5 7q19 0 34 -7t26 -17.5t18 -24t12 -26.5h-180zM207 364q32 0 56 -15.5t39.5 -40.5t23 -57.5t7.5 -65.5t-7.5 -65t-23 -57t-39.5 -40.5t-56 -15.5t-55.5 15.5t-39.5 40.5t-23.5 57t-7.5 65t7.5 65.5t23 57.5t39.5 40.5t56 15.5
zM369 70q26 -37 67.5 -58.5t89.5 -21.5q35 0 64.5 11.5t50 26t31 27.5t7.5 16t-12 -3.5t-24 -15.5t-36 -17t-48 -8q-31 0 -59.5 11t-50 31.5t-34 50t-12.5 65.5q0 34 3 51t8 35h252q3 0 -2.5 17t-23 37.5t-49 37.5t-80.5 17q-45 0 -82.5 -21t-61.5 -57q-28 39 -71 58.5
t-89 19.5q-37 0 -72 -12t-62.5 -36.5t-44 -61t-16.5 -85.5t17 -85.5t44.5 -61t62.5 -36.5t71 -12q48 0 91 19.5t71 60.5z" />
    <glyph glyph-name="Ydieresis" unicode="&#x178;" horiz-adv-x="733" 
d="M647 107v553h-142q-9 0 -5 -4t13.5 -10.5t21 -14.5t17.5 -15q11 -13 17 -31t6 -38v-406q0 -32 -31.5 -60.5t-79 -45t-103 -15.5t-103 29.5t-79 89.5t-31.5 164q0 68 11.5 121t28 93t34 67t30 44t16.5 24.5t-8 7.5h-138q-10 0 -8.5 -4.5t9.5 -12.5t19.5 -17.5t21.5 -19.5
t15 -19.5t1 -16.5q-7 -11 -26.5 -35.5t-40.5 -60t-37 -79t-16 -92.5q0 -59 17 -115.5t51.5 -100.5t88 -71.5t127.5 -27.5q63 0 107 13t71.5 28.5t40 28.5l12.5 13q0 -90 -25.5 -142.5t-65 -78t-85 -28.5t-85 7.5t-67 30t-28.5 37.5l-9.5 -7.5t-24.5 -17.5t-34 -21t-38 -17
q-4 -1 17.5 -9t58 -16t85 -13.5t99.5 -1.5t100 21t88 53t62.5 94t23.5 145zM357 729q0 17 -10.5 27.5t-27.5 10.5t-27.5 -10.5t-10.5 -27.5t10.5 -27.5t27.5 -10.5t27.5 10.5t10.5 27.5zM497 729q0 17 -10.5 27.5t-27.5 10.5t-27.5 -10.5t-10.5 -27.5t10.5 -27.5t27.5 -10.5
t27.5 10.5t10.5 27.5z" />
    <glyph glyph-name="exclamdown" unicode="&#xa1;" horiz-adv-x="215" 
d="M134 83v342q0 14 3.5 24t10.5 20h-86q7 -12 10.5 -21.5t3.5 -22.5v-379q0 -24 -4 -44.5t-8.5 -34.5t-6.5 -22.5t1 -8.5q4 0 17.5 9.5t33 22.5t43 24.5t46.5 15.5q4 1 -5 5.5t-22.5 13.5t-25 22.5t-11.5 33.5zM58 555q0 -24 14.5 -35.5t32.5 -11.5t32.5 11.5t14.5 35.5
t-14.5 35.5t-32.5 11.5t-32.5 -11.5t-14.5 -35.5z" />
    <glyph glyph-name="cent" unicode="&#xa2;" horiz-adv-x="369" 
d="M167 402q-1 0 -15.5 -3t-38 -13t-45 -27.5t-37.5 -47t-16 -71.5q0 -45 16.5 -79t40.5 -56.5t50 -33.5t45 -11q0 -1 -0.5 -11t-2 -24.5t-5.5 -24.5h48q-3 10 -5 24.5t-2.5 24.5t-0.5 11q34 -1 61 12t44.5 29t25.5 30.5t5 16.5q-3 1 -10.5 -9t-21 -22.5t-32.5 -23.5
t-44 -12q-9 0 -18.5 1.5l-9.5 1.5v296q2 0 14.5 -3t25 -17t7.5 -44q0 -2 10.5 1.5t23.5 9.5t23 12t8 9q-15 21 -34.5 32t-37 16.5t-29 6.5l-11.5 1v84h-75q-9 0 -8 -3.5t6 -8t13 -10.5t13 -10q10 -9 14 -22t4.5 -22t0.5 -10zM167 379v-285l-13 8t-28.5 25.5t-28.5 45
t-13 67.5q0 43 13 70t28.5 42.5t28.5 21z" />
    <glyph glyph-name="sterling" unicode="&#xa3;" horiz-adv-x="536" 
d="M82 512v-167l-14.5 -4t-23.5 -11q-5 -3 -12.5 -10.5t-13 -14t-7 -10t6.5 -0.5q29 14 46.5 14.5l17.5 0.5v-229q0 -20 -6 -32.5t-14 -21t-17.5 -14.5t-15.5 -13l29 -0.5t74 -1t98 -2.5t100.5 -5t83 -8t45.5 -11l38 114q-23 -18 -57 -30.5t-72 -21t-76 -12t-69 -2.5
t-50 7.5t-19 17.5v272q2 0 12.5 1.5t29.5 1t35 -6.5q9 -3 23.5 -4.5t29.5 1t28.5 8.5t20.5 18q3 5 0 4.5t-12.5 -2t-26 -0.5t-40.5 10q-21 7 -45 8t-38.5 -0.5t-16.5 -1.5v160q0 44 25 74t56.5 43.5t60.5 8.5t37 -30q3 -8 2 -19.5t-3 -21.5t-3.5 -16t-0.5 -3
q13 27 29.5 37.5t30.5 12t22.5 -1t7.5 0.5q-12 22 -43.5 37.5t-70.5 20.5t-79 -3t-69 -35q-12 -11 -24.5 -13t-26.5 -1t-29 3.5t-31 1.5q-6 0 -0.5 -6.5t13.5 -19t16 -30.5t8 -42z" />
    <glyph glyph-name="brokenbar" unicode="&#xa6;" horiz-adv-x="147" 
d="M34 370h58v321h-58v-321zM34 -2h58v321h-58v-321z" />
    <glyph glyph-name="section" unicode="&#xa7;" horiz-adv-x="375" 
d="M107 445l-16 -5t-35.5 -19t-35.5 -39t-16 -65q0 -37 21.5 -58t53.5 -34t69.5 -21t69.5 -19t53.5 -28.5t21.5 -48.5q0 -51 -32 -76t-83 -25q-41 0 -65 14t-36.5 30.5t-17 30.5t-6.5 13q-7 -2 -4 -14t1 -26q-3 -20 -11.5 -29.5t-5.5 -10.5q62 -26 117 -25.5t95.5 19.5
t64 51.5t23.5 71.5q0 31 -16.5 50.5t-36.5 30t-36.5 14.5l-16.5 4q17 4 35.5 15.5t34.5 28t26 38t10 47.5q0 38 -22 58.5t-54.5 32.5t-70.5 19.5t-70.5 19.5t-54.5 33.5t-22 60.5q0 23 12 39t31.5 26t43.5 14.5t47 4.5q39 0 65 -16t42 -34.5t23 -32.5t7 -9q0 17 4 31
t8.5 23.5t8 14.5t2.5 5q-51 21 -108.5 28.5t-106.5 -3t-81.5 -41.5t-32.5 -87q0 -38 26 -63t77 -39zM141 435q1 0 15.5 -2.5t38 -9t45 -17.5t37.5 -28.5t16 -40.5q0 -26 -7.5 -43.5t-20 -28.5t-28 -17.5t-30.5 -9.5q-1 0 -17.5 2t-42 8.5t-49.5 19t-41.5 34t-17.5 52.5
q0 19 9 33.5t23.5 25t33 16t36.5 6.5z" />
    <glyph glyph-name="dieresis" unicode="&#xa8;" horiz-adv-x="272" 
d="M104 439q0 17 -10.5 27.5t-27.5 10.5t-27.5 -10.5t-10.5 -27.5t10.5 -27.5t27.5 -10.5t27.5 10.5t10.5 27.5zM244 439q0 17 -10.5 27.5t-27.5 10.5t-27.5 -10.5t-10.5 -27.5t10.5 -27.5t27.5 -10.5t27.5 10.5t10.5 27.5z" />
    <glyph glyph-name="copyright" unicode="&#xa9;" horiz-adv-x="500" 
d="M5 300q0 -77 34.5 -128.5t86 -77.5t111.5 -26t111.5 26t86 77.5t34.5 128.5t-34.5 128.5t-86 77.5t-111.5 26t-111.5 -26t-86 -77.5t-34.5 -128.5zM262 439q-49 0 -82 -13.5t-53 -34.5t-28.5 -46.5t-8.5 -48.5q0 -67 41.5 -104.5t113.5 -37.5q45 0 72 15t38 24v30
q-23 -33 -53.5 -45.5t-56.5 -12.5q-21 0 -42 7t-38 23t-28 40.5t-11 60.5q0 24 9 48t26.5 43t42.5 30.5t58 11.5q20 0 48 -6.5t45 -27.5v44h-93zM29 300q0 69 31 115.5t77 69.5t100 23t100 -23t77 -69.5t31 -115.5t-31 -115.5t-77 -69.5t-100 -23t-100 23t-77 69.5
t-31 115.5z" />
    <glyph glyph-name="ordfeminine" unicode="&#xaa;" horiz-adv-x="313" 
d="M176 584q-23 0 -44 -9.5t-37 -25.5t-26 -37.5t-10 -45.5q0 -37 19.5 -53.5t42.5 -16.5q19 0 35.5 6t24.5 11.5t9 6.5l11.5 -10.5t34.5 -11.5q14 -1 22.5 6t6.5 9q0 1 -7.5 -1t-16 1t-15.5 13.5t-7 36.5v89q0 12 3 19.5t8 12.5h-54zM140 412q-16 0 -31 13t-15 41
q0 36 15 60.5t33 35.5t33 9t15 -18v-104q0 -17 -15.5 -27t-34.5 -10zM58 365l-29 -29h207l29 29h-207z" />
    <glyph glyph-name="guillemotleft" unicode="&#xab;" horiz-adv-x="460" 
d="M229 340l-68 -10q-5 -19 -16.5 -42.5t-31 -46.5t-47.5 -43.5t-65 -32.5q1 -1 16 -10.5t39.5 -28t49.5 -40t46.5 -46.5t29.5 -47l61 15q-10 27 -35 56t-51.5 53t-47 39.5l-20.5 15.5q27 10 49.5 30t40.5 43.5t31 48.5t19 46zM415 340l-68 -10q-5 -19 -16.5 -42.5
t-31 -46.5t-47.5 -43.5t-65 -32.5q1 -1 16 -10.5t39.5 -28t49.5 -40t46.5 -46.5t29.5 -47l61 15q-10 27 -35 56t-51.5 53t-47 39.5l-20.5 15.5q27 10 49.5 30t40.5 43.5t31 48.5t19 46z" />
    <glyph glyph-name="registered" unicode="&#xae;" horiz-adv-x="500" 
d="M149 276q0 -5 -1 -17.5t-6 -18.5h47q-5 6 -6.5 18.5t-1.5 17.5v89q0 4 4.5 3t11.5 -4.5t14 -10t13 -13.5q4 -5 14.5 -18.5t24 -29t28 -30.5t26.5 -22h67q-28 6 -50.5 26t-42 42.5t-38 42t-39.5 26.5l17 6.5t38 20t38 34t17 47.5q0 26 -21.5 39t-52.5 13q-18 0 -37.5 -8
t-36.5 -25q0 1 -3.5 8t-17 14t-38.5 4q-2 0 3 -2.5t11.5 -8.5t12 -16.5t5.5 -26.5v-200zM286 480q2 -30 -14 -49t-36.5 -29.5t-37.5 -14.5l-17 -4v102q0 15 18 25t38 10q18 0 32.5 -9.5t16.5 -30.5zM5 378q0 -77 34.5 -128.5t86 -77.5t111.5 -26t111.5 26t86 77.5
t34.5 128.5t-34.5 128.5t-86 77.5t-111.5 26t-111.5 -26t-86 -77.5t-34.5 -128.5zM29 378q0 69 31 115.5t77 69.5t100 23t100 -23t77 -69.5t31 -115.5t-31 -115.5t-77 -69.5t-100 -23t-100 23t-77 69.5t-31 115.5z" />
    <glyph glyph-name="macron" unicode="&#xaf;" horiz-adv-x="417" 
d="M140 434l-89 -32h217l88 32h-216z" />
    <glyph glyph-name="degree" unicode="&#xb0;" horiz-adv-x="208" 
d="M48 599q-12 -16 -12 -34t9 -33t24.5 -25t35.5 -10q19 0 34.5 10.5t23.5 26.5t8 33q0 18 -11 33t-26 22t-30.5 6.5t-30 -8t-25.5 -21.5zM104 514q-9 0 -18.5 8t-16 19t-9.5 24t1 22q6 14 16.5 19.5t21 5t21 -7.5t16.5 -19q18 -32 7.5 -51.5t-39.5 -19.5z" />
    <glyph glyph-name="twosuperior" unicode="&#xb2;" horiz-adv-x="321" 
d="M22 376h125q24 0 39 -3.5t24 -8t12.5 -7.5t3.5 -1q1 13 8.5 29.5t14 26.5t7.5 12q-9 -3 -23 -12.5t-42 -9.5h-115q1 1 16.5 13.5t40.5 35t48 49.5t40 57.5t17 58.5q0 22 -6.5 37t-18 24t-27 13t-32.5 4q-36 0 -71 -18.5t-47 -53.5l12 2t22 2q11 0 23.5 -3l12.5 -3
q-18 16 -20 29t6.5 21t23.5 10t32 -2q22 -6 39.5 -25.5t16.5 -56.5q0 -26 -19 -57t-45.5 -59t-54 -52t-45 -37.5t-18.5 -14.5z" />
    <glyph glyph-name="threesuperior" unicode="&#xb3;" horiz-adv-x="296" 
d="M111 627q-21 29 -13 41.5t28 14.5q10 0 21.5 -2.5t21.5 -8.5t16.5 -15t6.5 -23q0 -25 -11 -40.5t-23.5 -23.5t-23.5 -11l-11 -3q21 -2 36.5 -11t25.5 -22.5t14.5 -30t4.5 -32.5q0 -12 -4.5 -26t-12.5 -26t-20.5 -20.5t-28.5 -8.5q-23 0 -34 15.5t-9 33.5q-1 -1 -8.5 -5
t-20.5 -9.5t-26 -6.5q-3 0 3 -6t19 -12.5t32.5 -12t43.5 -5.5q20 0 39.5 6t35.5 17.5t25.5 28.5t9.5 38q0 28 -13 47.5t-28 31.5t-28 17.5l-13 5.5q9 4 21 9.5t23.5 14t19 21t6.5 32.5q-2 26 -29 40t-62 14q-31 0 -59.5 -13t-43.5 -41h12t22 -3q11 -1 23 -5.5z" />
    <glyph glyph-name="acute" unicode="&#xb4;" horiz-adv-x="300" 
d="M82 402q1 -2 16 4.5t36 17t43.5 23.5t38.5 24q7 5 6 13t-6.5 15t-14 9.5t-16.5 -3.5q-12 -10 -30 -26.5t-34.5 -32.5t-28 -29t-10.5 -15z" />
    <glyph glyph-name="paragraph" unicode="&#xb6;" horiz-adv-x="677" 
d="M588 291q0 97 -43 161.5t-108 97t-140 32.5t-140 -32.5t-108 -97t-43 -161.5t43 -161.5t108 -97t140 -32.5t140 32.5t108 97t43 161.5zM102 100q-37 28 -56 71t-24 90t3 93t26 81l-5 -19t-8 -49t0 -67.5t19 -74.5q15 -36 42 -65t59.5 -47t67.5 -22.5t67 7.5
q29 11 45.5 28.5t24.5 33.5t10 27.5l2 11.5q-29 -2 -44 9t-18 27t4 32.5t21 26.5t34 9t42 -20q27 -23 29 -57t-14.5 -68.5t-49.5 -63.5t-76.5 -41.5t-95 -3.5t-105.5 51zM230 546q45 18 92 15.5t89.5 -19.5t77 -46t53.5 -64l-13 12.5t-36.5 28t-56.5 30t-73 19.5
q-39 4 -78 -4t-71 -26.5t-54 -46.5t-27 -63q-5 -32 2 -55t16.5 -38t18.5 -22.5l9 -7.5q13 26 30 33.5t32 2t26 -19.5t13 -31.5t-8.5 -34t-38.5 -26.5q-34 -12 -64.5 3.5t-52 47.5t-30.5 75t2 87.5t45 84.5t97 65zM554 222q-7 -51 -33.5 -90t-64 -65.5t-81.5 -40t-85 -13.5
l19 4.5t47 16t59 31.5t55 52q23 30 34.5 68t10.5 75.5t-14.5 71t-40.5 55.5q-24 19 -47 25t-41 5.5t-29 -4.5l-11 -4q16 -25 13.5 -43.5t-14.5 -29t-30.5 -13t-34 5t-25 25t-4.5 46.5q6 35 34.5 54t67 22t80.5 -11t75 -45.5t51 -81t9 -116.5z" />
    <glyph glyph-name="periodcentered" unicode="&#xb7;" horiz-adv-x="190" 
d="M104 250q0 19 -12 28.5t-26 9.5t-26 -9.5t-12 -28.5t12 -28.5t26 -9.5t26 9.5t12 28.5z" />
    <glyph glyph-name="periodcentered" unicode="&#x2219;" horiz-adv-x="190" 
d="M104 250q0 19 -12 28.5t-26 9.5t-26 -9.5t-12 -28.5t12 -28.5t26 -9.5t26 9.5t12 28.5z" />
    <glyph glyph-name="cedilla" unicode="&#xb8;" horiz-adv-x="400" 
d="M248 0h-75q-11 -6 -7.5 -15.5t13 -21t20 -24t13.5 -25t-6 -24t-38 -19.5q-10 -3 -2.5 -4t23.5 0t35 5t32 12t16 20t-15 29q-16 15 -23 27.5t-7 21.5t5.5 13.5t15.5 4.5z" />
    <glyph glyph-name="onesuperior" unicode="&#xb9;" horiz-adv-x="326" 
d="M176 463v230q0 12 -3.5 16t-8.5 4t-12 -4t-14.5 -10l-15 -12t-13.5 -10q1 0 8 1t15 -0.5t8 -6.5v-208q0 -8 -1.5 -21.5t-7.5 -20.5h54q-6 7 -7.5 21.5t-1.5 20.5z" />
    <glyph glyph-name="ordmasculine" unicode="&#xba;" horiz-adv-x="290" 
d="M248 493q0 24 -8.5 42.5t-22 30.5t-31 18t-35.5 6t-36 -6t-31.5 -18t-22 -30.5t-8.5 -42.5t8.5 -42.5t22 -31t31.5 -18.5t36 -6t35.5 6t31 18t22 30.5t8.5 43.5zM151 582q16 0 28 -7.5t19.5 -20.5t11.5 -29t4 -32q0 -34 -15.5 -61.5t-47.5 -27.5t-47.5 27.5t-15.5 61.5
q0 16 3.5 32t11.5 29t20 20.5t28 7.5zM74 365l-29 -29h185l29 29h-185z" />
    <glyph glyph-name="guillemotright" unicode="&#xbb;" horiz-adv-x="460" 
d="M228 -4l68 10q4 19 16 42.5t31.5 46.5t47.5 43.5t65 32.5l-24.5 16t-55.5 41.5t-61 55.5t-40 59l-61 -15q10 -27 35 -56t51.5 -53t47 -39.5l20.5 -15.5q-27 -11 -49.5 -30.5t-40.5 -43t-31 -48.5t-19 -46zM42 -4l68 10q4 19 16 42.5t31.5 46.5t47.5 43.5t65 32.5
l-24.5 16t-55.5 41.5t-61 55.5t-40 59l-61 -15q10 -27 35 -56t51.5 -53t47 -39.5l20.5 -15.5q-27 -11 -49.5 -30.5t-40.5 -43t-31 -48.5t-19 -46z" />
    <glyph glyph-name="onequarter" unicode="&#xbc;" horiz-adv-x="326" 
d="M176 463v230q0 12 -3.5 16t-8.5 4t-12 -4t-14.5 -10l-15 -12t-13.5 -10q1 0 8 1t15 -0.5t8 -6.5v-208q0 -8 -1.5 -21.5t-7.5 -20.5h54q-6 7 -7.5 21.5t-1.5 20.5zM71 370l-46 -23h230l46 23h-230zM82 239q4 -30 -2.5 -58t-16 -49.5t-18 -34.5l-8.5 -13h155v-69
q0 -6 -1.5 -20t-7.5 -21h53q-6 7 -7 21t-1 20v69h30l39 18h-69v144q0 24 6.5 39t2.5 16q-2 0 -8 -5t-15 -11.5t-21.5 -12.5t-26.5 -8q-2 0 1.5 -2t9 -6.5t10.5 -11.5t5 -17v-125h-115l7 13.5t15.5 38t15.5 59.5t7 78q0 4 -3 4t-7 -2t-8.5 -4.5t-8.5 -2.5q-15 -3 -25 -1.5
t-26 -7.5q-3 -2 2 -3.5t12.5 -5.5t14.5 -11t9 -18z" />
    <glyph glyph-name="onehalf" unicode="&#xbd;" horiz-adv-x="326" 
d="M176 463v216q0 12 -3.5 16t-8.5 4t-12 -4t-14.5 -10l-15 -12t-13.5 -10q1 0 8 1t15 -0.5t8 -6.5v-194q0 -8 -1.5 -21.5t-7.5 -20.5h54q-6 7 -7.5 21.5t-1.5 20.5zM71 370l-46 -23h230l46 23h-230zM42 -24h125q24 0 39 -3.5t24 -8t12.5 -7.5t3.5 -1q1 13 8.5 29.5t14 26.5
t7.5 12q-9 -3 -23 -12.5t-42 -9.5h-115q1 1 16.5 13.5t40.5 35t48 49.5t40 57.5t17 58.5q0 22 -6.5 37t-18 24t-27 13t-32.5 4q-36 0 -71 -18.5t-47 -53.5l12 2t22 2q11 0 23.5 -3l12.5 -3q-18 16 -20 29t6.5 21t23.5 10t32 -2q22 -6 39.5 -25.5t16.5 -56.5q0 -26 -19 -57
t-45.5 -59t-54 -52t-45 -37.5t-18.5 -14.5z" />
    <glyph glyph-name="threequarters" unicode="&#xbe;" horiz-adv-x="351" 
d="M66 241q4 -30 -2.5 -58t-16 -49.5t-18 -34.5l-8.5 -13h155v-69q0 -6 -1.5 -20t-7.5 -21h53q-6 7 -7 21t-1 20v69h30l39 18h-69v144q0 24 6.5 39t2.5 16q-2 0 -8 -5t-15 -11.5t-21.5 -12.5t-26.5 -8q-2 0 1.5 -2t9 -6.5t10.5 -11.5t5 -17v-125h-115l7 13.5t15.5 38
t15.5 59.5t7 78q0 4 -3 4t-7 -2t-8.5 -4.5t-8.5 -2.5q-15 -3 -25 -1.5t-26 -7.5q-3 -2 2 -3.5t12.5 -5.5t14.5 -11t9 -18zM115 659q-21 29 -13 41.5t28 14.5q10 0 21.5 -2.5t21.5 -8.5t16.5 -15t6.5 -23q0 -25 -11 -40.5t-23.5 -23.5t-23.5 -11l-11 -3q21 -2 36.5 -11
t25.5 -22.5t14.5 -30t4.5 -32.5q0 -12 -4.5 -26t-12.5 -26t-20.5 -20.5t-28.5 -8.5q-23 0 -34 15.5t-9 33.5q-1 -1 -8.5 -5t-20.5 -9.5t-26 -6.5q-3 0 3 -6t19 -12.5t32.5 -12t43.5 -5.5q20 0 39.5 6t35.5 17.5t25.5 28.5t9.5 38q0 28 -13 47.5t-28 31.5t-28 17.5l-13 5.5
q9 4 21 9.5t23.5 14t19 21t6.5 32.5q-2 26 -29 40t-62 14q-31 0 -59.5 -13t-43.5 -41h12t22 -3q11 -1 23 -5.5zM71 370l-46 -23h230l46 23h-230z" />
    <glyph glyph-name="questiondown" unicode="&#xbf;" horiz-adv-x="408" 
d="M5 164q0 -39 16 -72t43.5 -57t64 -37.5t77.5 -13.5q42 0 71 10.5t48 27t29.5 37.5t13.5 42q5 29 -7 53.5t-27.5 41t-28 23t-8.5 0.5q20 -34 20 -73q0 -38 -14 -70.5t-40 -54t-57 -21.5t-55.5 14t-41.5 37t-26 52.5t-9 60.5q0 41 13.5 73t34 58t44.5 48t45 43.5t35 44
t15 49.5q0 7 -5 7t-12.5 -3t-16 -7t-15.5 -4q-12 0 -23.5 2.5t-22 5.5t-19.5 4.5t-15 -1.5q-8 -5 -1 -8t18 -11t20.5 -23.5t5.5 -45.5q-2 -15 -15.5 -26t-32.5 -23t-40 -26.5t-39.5 -35.5t-30.5 -50t-12 -71zM155 579q0 -20 13.5 -33.5t33.5 -13.5t33.5 13.5t13.5 33.5
t-13.5 33.5t-33.5 13.5t-33.5 -13.5t-13.5 -33.5z" />
    <glyph glyph-name="Agrave" unicode="&#xc0;" horiz-adv-x="672" 
d="M59 -11l319 401l11.5 -23l29.5 -59t39 -80.5t41 -88t35 -80.5t21 -59h117q-19 9 -42.5 47t-51 93.5t-57 123.5t-59.5 138t-59.5 137t-56.5 121q-2 4 -20.5 5.5t-43 2.5t-50.5 1q-25 0 -41 -0.5t-17 -0.5q33 -1 59.5 -25.5t45 -54t28.5 -54l10 -24.5q-59 -29 -114.5 -81
t-94.5 -120t-55 -149.5t6 -170.5zM133 107q-4 -5 -7.5 16.5t-1 58t13 80.5t34.5 84q20 34 46 63t49.5 49t40.5 28.5t20 2.5l42 -85zM194 763q16 -11 38.5 -24.5t43.5 -24.5t36 -17.5t16 -4.5t-10.5 15t-28 30t-34.5 33.5t-30 26.5q-8 6 -16.5 3.5t-14 -9.5t-6.5 -15t6 -13z
" />
    <glyph glyph-name="Aacute" unicode="&#xc1;" horiz-adv-x="672" 
d="M59 -11l319 401l11.5 -23l29.5 -59t39 -80.5t41 -88t35 -80.5t21 -59h117q-19 9 -42.5 47t-51 93.5t-57 123.5t-59.5 138t-59.5 137t-56.5 121q-2 4 -20.5 5.5t-43 2.5t-50.5 1q-25 0 -41 -0.5t-17 -0.5q33 -1 59.5 -25.5t45 -54t28.5 -54l10 -24.5q-59 -29 -114.5 -81
t-94.5 -120t-55 -149.5t6 -170.5zM133 107q-4 -5 -7.5 16.5t-1 58t13 80.5t34.5 84q20 34 46 63t49.5 49t40.5 28.5t20 2.5l42 -85zM212 692q1 -2 16 4.5t36 17t43.5 23.5t38.5 24q7 5 6 13t-6.5 15t-14 9.5t-16.5 -3.5q-12 -10 -30 -26.5t-34.5 -32.5t-28 -29t-10.5 -15z
" />
    <glyph glyph-name="Acircumflex" unicode="&#xc2;" horiz-adv-x="672" 
d="M59 -11l319 401l11.5 -23l29.5 -59t39 -80.5t41 -88t35 -80.5t21 -59h117q-19 9 -42.5 47t-51 93.5t-57 123.5t-59.5 138t-59.5 137t-56.5 121q-2 4 -20.5 5.5t-43 2.5t-50.5 1q-25 0 -41 -0.5t-17 -0.5q33 -1 59.5 -25.5t45 -54t28.5 -54l10 -24.5q-59 -29 -114.5 -81
t-94.5 -120t-55 -149.5t6 -170.5zM133 107q-4 -5 -7.5 16.5t-1 58t13 80.5t34.5 84q20 34 46 63t49.5 49t40.5 28.5t20 2.5l42 -85zM183 694l9 6t21 15.5t24 21t19 22.5l8.5 -7.5t21.5 -18.5t29.5 -22.5t31.5 -18.5l40 34q-26 9 -46.5 22.5t-35 26t-22 21.5l-7.5 9
q-8 -14 -25 -32t-34.5 -33.5t-31 -26l-13.5 -10.5z" />
    <glyph glyph-name="Atilde" unicode="&#xc3;" horiz-adv-x="672" 
d="M59 -11l319 401l11.5 -23l29.5 -59t39 -80.5t41 -88t35 -80.5t21 -59h117q-19 9 -42.5 47t-51 93.5t-57 123.5t-59.5 138t-59.5 137t-56.5 121q-2 4 -20.5 5.5t-43 2.5t-50.5 1q-25 0 -41 -0.5t-17 -0.5q33 -1 59.5 -25.5t45 -54t28.5 -54l10 -24.5q-59 -29 -114.5 -81
t-94.5 -120t-55 -149.5t6 -170.5zM133 107q-4 -5 -7.5 16.5t-1 58t13 80.5t34.5 84q20 34 46 63t49.5 49t40.5 28.5t20 2.5l42 -85zM153 691q21 38 42.5 54t45.5 16q18 0 31 -4t25 -9t25 -9t31 -4q20 0 36.5 6.5t24 12.5t8.5 7q-18 -37 -39 -52.5t-47 -15.5q-18 0 -29.5 4
t-22 9t-22 9t-29.5 4q-20 0 -39.5 -7.5t-29.5 -13.5t-11 -7z" />
    <glyph glyph-name="Adieresis" unicode="&#xc4;" horiz-adv-x="672" 
d="M59 -11l319 401l11.5 -23l29.5 -59t39 -80.5t41 -88t35 -80.5t21 -59h117q-19 9 -42.5 47t-51 93.5t-57 123.5t-59.5 138t-59.5 137t-56.5 121q-2 4 -20.5 5.5t-43 2.5t-50.5 1q-25 0 -41 -0.5t-17 -0.5q33 -1 59.5 -25.5t45 -54t28.5 -54l10 -24.5q-59 -29 -114.5 -81
t-94.5 -120t-55 -149.5t6 -170.5zM133 107q-4 -5 -7.5 16.5t-1 58t13 80.5t34.5 84q20 34 46 63t49.5 49t40.5 28.5t20 2.5l42 -85zM249 729q0 17 -10.5 27.5t-27.5 10.5t-27.5 -10.5t-10.5 -27.5t10.5 -27.5t27.5 -10.5t27.5 10.5t10.5 27.5zM389 729q0 17 -10.5 27.5
t-27.5 10.5t-27.5 -10.5t-10.5 -27.5t10.5 -27.5t27.5 -10.5t27.5 10.5t10.5 27.5z" />
    <glyph glyph-name="Aring" unicode="&#xc5;" horiz-adv-x="672" 
d="M59 -11l319 401l11.5 -23l29.5 -59t39 -80.5t41 -88t35 -80.5t21 -59h117q-19 9 -42.5 47t-51 93.5t-57 123.5t-59.5 138t-59.5 137t-56.5 121q-2 4 -20.5 5.5t-43 2.5t-50.5 1q-25 0 -41 -0.5t-17 -0.5q33 -1 59.5 -25.5t45 -54t28.5 -54l10 -24.5q-59 -29 -114.5 -81
t-94.5 -120t-55 -149.5t6 -170.5zM133 107q-4 -5 -7.5 16.5t-1 58t13 80.5t34.5 84q20 34 46 63t49.5 49t40.5 28.5t20 2.5l42 -85zM229 794q-12 -16 -12 -34t9 -33t24.5 -25t35.5 -10q19 0 34.5 10.5t23.5 26.5t8 33q0 18 -11 33t-26 22t-30.5 6.5t-30 -8t-25.5 -21.5z
M285 709q-9 0 -18.5 8t-16 19.5t-9.5 24t1 21.5q6 14 16.5 19.5t21 5t21 -7.5t16.5 -19q18 -32 7.5 -51.5t-39.5 -19.5z" />
    <glyph glyph-name="AE" unicode="&#xc6;" horiz-adv-x="1132" 
d="M672 -1q43 -6 97 -7.5t109.5 7t106.5 30t87 60.5v68q-15 -31 -44.5 -58t-68 -46.5t-84 -29.5t-92 -5.5t-91.5 25.5t-83 63q-50 55 -66 108.5t-14 99.5t15 82t22 56h367q43 0 73 -11.5t66 -35.5l1 111q-25 -20 -61 -33t-79 -13h-359q4 8 12.5 22.5t22 32t33 35t45.5 31.5
q48 26 101.5 37.5t105 7.5t98 -23.5t80.5 -55.5l1 103h-196q-17 0 -58.5 -1t-92.5 -12t-103.5 -36.5t-92.5 -75.5q-14 -17 -24 -32.5t-17.5 -31.5t-13.5 -33.5t-12 -38.5l-11 25t-27.5 63t-37 82t-39.5 83q-2 4 -20.5 5.5t-43 2.5t-50.5 1q-25 0 -41 -0.5t-17 -0.5
q33 -1 59.5 -24.5t44.5 -51.5t27.5 -51l9.5 -23q-59 -29 -114.5 -81t-94.5 -120t-55 -149.5t6 -170.5l319 401l11.5 -23l29.5 -59t39 -80.5t41 -88t35 -80.5t21 -59q0 -1 18.5 -1.5t39.5 -0.5q22 0 40.5 0.5zM133 107q-4 -5 -7.5 16.5t-1 58t13 80.5t34.5 84q20 34 46 63
t49.5 49t40.5 28.5t20 2.5l42 -85z" />
    <glyph glyph-name="Ccedilla" unicode="&#xc7;" horiz-adv-x="740" 
d="M454 -6q33 0 67.5 9t65.5 23t55.5 29.5t37.5 29.5v70q-27 -39 -59 -65t-65.5 -42t-67.5 -23t-65 -7q-48 0 -97.5 17t-90 53.5t-66 95t-25.5 142.5q0 57 21.5 112.5t62 99t99.5 70.5t135 27q24 0 53.5 -3t59.5 -11.5t57.5 -24t47.5 -39.5v103h-218q-114 0 -191 -32
t-123.5 -81t-66.5 -108t-20 -113q0 -79 26 -140.5t69.5 -104t101 -65t121.5 -22.5q-6 -13 -0.5 -25.5t15 -24t18.5 -22t10.5 -20.5t-9 -19.5t-39.5 -17.5q-10 -3 -2.5 -4t23.5 0t35 5t32 12t15.5 20t-14.5 29q-16 15 -23 27.5t-7 21.5t5.5 13.5t15.5 4.5z" />
    <glyph glyph-name="Egrave" unicode="&#xc8;" horiz-adv-x="738" 
d="M471 660q-98 0 -174 -23.5t-128.5 -67.5t-80 -107.5t-27.5 -143.5q0 -78 27.5 -140t75.5 -105t112.5 -66t138.5 -23q40 0 78.5 8t72.5 22.5t62.5 33.5t49.5 41v79q-14 -29 -40 -57.5t-61 -51t-76.5 -36.5t-85.5 -14q-59 0 -108 23t-84 64t-54.5 98t-19.5 126q0 25 4.5 49
t10.5 42.5t10.5 29.5l4.5 11h360q43 0 73 -11.5t66 -35.5v111q-25 -20 -60.5 -33t-78.5 -13h-352q12 21 31 49.5t51.5 54t81.5 43.5t120 18q60 0 114 -18.5t93 -59.5v103h-207zM330 761q16 -11 38.5 -24t43.5 -23.5t36 -17t16 -4.5t-10.5 15t-28 29t-34.5 32.5t-30 26.5
q-8 6 -16.5 3.5t-14 -9.5t-6.5 -15t6 -13z" />
    <glyph glyph-name="Eacute" unicode="&#xc9;" horiz-adv-x="738" 
d="M471 660q-98 0 -174 -23.5t-128.5 -67.5t-80 -107.5t-27.5 -143.5q0 -78 27.5 -140t75.5 -105t112.5 -66t138.5 -23q40 0 78.5 8t72.5 22.5t62.5 33.5t49.5 41v79q-14 -29 -40 -57.5t-61 -51t-76.5 -36.5t-85.5 -14q-59 0 -108 23t-84 64t-54.5 98t-19.5 126q0 25 4.5 49
t10.5 42.5t10.5 29.5l4.5 11h360q43 0 73 -11.5t66 -35.5v111q-25 -20 -60.5 -33t-78.5 -13h-352q12 21 31 49.5t51.5 54t81.5 43.5t120 18q60 0 114 -18.5t93 -59.5v103h-207zM372 692q1 -2 16 4.5t36 17t43.5 23.5t38.5 24q7 5 6 13t-6.5 15t-14 9.5t-16.5 -3.5
q-12 -10 -30 -26.5t-34.5 -32.5t-28 -29t-10.5 -15z" />
    <glyph glyph-name="Ecircumflex" unicode="&#xca;" horiz-adv-x="738" 
d="M471 660q-98 0 -174 -23.5t-128.5 -67.5t-80 -107.5t-27.5 -143.5q0 -78 27.5 -140t75.5 -105t112.5 -66t138.5 -23q40 0 78.5 8t72.5 22.5t62.5 33.5t49.5 41v79q-14 -29 -40 -57.5t-61 -51t-76.5 -36.5t-85.5 -14q-59 0 -108 23t-84 64t-54.5 98t-19.5 126q0 25 4.5 49
t10.5 42.5t10.5 29.5l4.5 11h360q43 0 73 -11.5t66 -35.5v111q-25 -20 -60.5 -33t-78.5 -13h-352q12 21 31 49.5t51.5 54t81.5 43.5t120 18q60 0 114 -18.5t93 -59.5v103h-207zM339 694l9 6t21 15.5t24 21t19 22.5l8.5 -7.5t21.5 -18.5t29.5 -22.5t31.5 -18.5l40 34
q-26 9 -46.5 22.5t-35 26t-22 21.5l-7.5 9q-8 -14 -25 -32t-34.5 -33.5t-31 -26l-13.5 -10.5z" />
    <glyph glyph-name="Edieresis" unicode="&#xcb;" horiz-adv-x="738" 
d="M471 660q-98 0 -174 -23.5t-128.5 -67.5t-80 -107.5t-27.5 -143.5q0 -78 27.5 -140t75.5 -105t112.5 -66t138.5 -23q40 0 78.5 8t72.5 22.5t62.5 33.5t49.5 41v79q-14 -29 -40 -57.5t-61 -51t-76.5 -36.5t-85.5 -14q-59 0 -108 23t-84 64t-54.5 98t-19.5 126q0 25 4.5 49
t10.5 42.5t10.5 29.5l4.5 11h360q43 0 73 -11.5t66 -35.5v111q-25 -20 -60.5 -33t-78.5 -13h-352q12 21 31 49.5t51.5 54t81.5 43.5t120 18q60 0 114 -18.5t93 -59.5v103h-207zM392 729q0 17 -10.5 27.5t-27.5 10.5t-27.5 -10.5t-10.5 -27.5t10.5 -27.5t27.5 -10.5
t27.5 10.5t10.5 27.5zM532 729q0 17 -10.5 27.5t-27.5 10.5t-27.5 -10.5t-10.5 -27.5t10.5 -27.5t27.5 -10.5t27.5 10.5t10.5 27.5z" />
    <glyph glyph-name="Igrave" unicode="&#xcc;" horiz-adv-x="283" 
d="M125 81q0 -6 -0.5 -17t-2 -23t-5.5 -23t-10 -18h108q-6 7 -9.5 18t-5.5 23t-2.5 23t-0.5 17v579h-184q0 -8 17.5 -13.5t38.5 -17.5t38.5 -34t17.5 -62v-452zM30 761q16 -11 38.5 -24t43.5 -23.5t36 -17t16 -4.5t-10.5 15t-28 29t-34.5 32.5t-30 26.5q-8 6 -16.5 3.5
t-14 -9.5t-6.5 -15t6 -13z" />
    <glyph glyph-name="Iacute" unicode="&#xcd;" horiz-adv-x="283" 
d="M125 81q0 -6 -0.5 -17t-2 -23t-5.5 -23t-10 -18h108q-6 7 -9.5 18t-5.5 23t-2.5 23t-0.5 17v579h-184q0 -8 17.5 -13.5t38.5 -17.5t38.5 -34t17.5 -62v-452zM54 692q1 -2 16 4.5t36 17t43.5 23.5t38.5 24q7 5 6 13t-6.5 15t-14 9.5t-16.5 -3.5q-12 -10 -30 -26.5
t-34.5 -32.5t-28 -29t-10.5 -15z" />
    <glyph glyph-name="Icircumflex" unicode="&#xce;" horiz-adv-x="283" 
d="M125 81q0 -6 -0.5 -17t-2 -23t-5.5 -23t-10 -18h108q-6 7 -9.5 18t-5.5 23t-2.5 23t-0.5 17v579h-184q0 -8 17.5 -13.5t38.5 -17.5t38.5 -34t17.5 -62v-452zM23 694l9 6t21 15.5t24 21t19 22.5l8.5 -7.5t21.5 -18.5t29.5 -22.5t31.5 -18.5l40 34q-26 9 -46.5 22.5t-35 26
t-22 21.5l-7.5 9q-8 -14 -25 -32t-34.5 -33.5t-31 -26l-13.5 -10.5z" />
    <glyph glyph-name="Idieresis" unicode="&#xcf;" horiz-adv-x="283" 
d="M125 81q0 -6 -0.5 -17t-2 -23t-5.5 -23t-10 -18h108q-6 7 -9.5 18t-5.5 23t-2.5 23t-0.5 17v579h-184q0 -8 17.5 -13.5t38.5 -17.5t38.5 -34t17.5 -62v-452zM90 729q0 17 -10.5 27.5t-27.5 10.5t-27.5 -10.5t-10.5 -27.5t10.5 -27.5t27.5 -10.5t27.5 10.5t10.5 27.5z
M230 729q0 17 -10.5 27.5t-27.5 10.5t-27.5 -10.5t-10.5 -27.5t10.5 -27.5t27.5 -10.5t27.5 10.5t10.5 27.5z" />
    <glyph glyph-name="Eth" unicode="&#xd0;" horiz-adv-x="676" 
d="M166 401v165q0 17 -3.5 29l-3.5 12q12 9 26 16.5t32.5 13t43 8.5t58.5 3q42 0 82.5 -21.5t73 -61t52.5 -96.5t20 -128q0 -88 -24.5 -150.5t-63.5 -103t-88.5 -59.5t-99.5 -19q-13 0 -28.5 2t-30 5t-27 7t-19.5 8v324h43l92 46h-135zM94 355v-355q15 -4 37 -7t46.5 -5
t49 -3t44.5 -1q66 0 131.5 22t117 66.5t83.5 111.5t32 157q0 60 -20 119.5t-59.5 107t-98.5 76.5t-138 29q-60 0 -102 -18.5t-64 -34.5l-7.5 11.5t-24.5 22t-45.5 15t-71.5 -9.5q-3 -1 11 -2t31.5 -10.5t32.5 -31t15 -62.5v-152h-2l-92 -46h94z" />
    <glyph glyph-name="Ntilde" unicode="&#xd1;" horiz-adv-x="718" 
d="M81 0h125q-12 11 -25.5 27.5t-24 37t-17.5 44t-7 49.5v418l463 -549q8 -9 16.5 -20t13.5 -11t6.5 11t1.5 18v635h-102q0 -8 12 -13.5t26.5 -17.5t26.5 -35t12 -64v-418l-451 548h-138q-17 0 -15.5 -2.5t11.5 -6t22.5 -7t17.5 -6.5q15 -8 26 -16t26 -24v-497
q0 -31 -6 -54.5t-20 -46.5zM389 743q-21 8 -41 13t-39 1.5t-37.5 -18.5t-36.5 -47l11 6.5t29 12.5t40.5 7t45.5 -10q18 -9 37.5 -13.5t38 0t36 19t31.5 44.5l-8 -6t-23 -11.5t-36 -6.5t-48 9z" />
    <glyph glyph-name="Ograve" unicode="&#xd2;" horiz-adv-x="790" 
d="M424 676q-68 0 -133.5 -21.5t-116.5 -65t-82.5 -108t-31.5 -151.5t31.5 -151.5t82.5 -108t116.5 -65t133.5 -21.5t133.5 21.5t116.5 65t82.5 108t31.5 151.5t-31.5 151.5t-82.5 108t-116.5 65t-133.5 21.5zM424 9q-52 0 -101.5 20t-88.5 60t-62.5 100.5t-23.5 140.5
q0 81 23.5 141t62.5 100t88.5 60t101.5 20t101.5 -20t88.5 -60t62.5 -100.5t23.5 -140.5q0 -81 -23.5 -141t-62.5 -100t-88.5 -60t-101.5 -20zM370 761q16 -11 38.5 -24t43.5 -23.5t36 -17t16 -4.5t-10.5 15t-28 29t-34.5 32.5t-30 26.5q-8 6 -16.5 3.5t-14 -9.5t-6.5 -15
t6 -13z" />
    <glyph glyph-name="Oacute" unicode="&#xd3;" horiz-adv-x="830" 
d="M424 676q-68 0 -133.5 -21.5t-116.5 -65t-82.5 -108t-31.5 -151.5t31.5 -151.5t82.5 -108t116.5 -65t133.5 -21.5t133.5 21.5t116.5 65t82.5 108t31.5 151.5t-31.5 151.5t-82.5 108t-116.5 65t-133.5 21.5zM424 9q-52 0 -101.5 20t-88.5 60t-62.5 100.5t-23.5 140.5
q0 81 23.5 141t62.5 100t88.5 60t101.5 20t101.5 -20t88.5 -60t62.5 -100.5t23.5 -140.5q0 -81 -23.5 -141t-62.5 -100t-88.5 -60t-101.5 -20zM352 692q1 -2 16 4.5t36 17t43.5 23.5t38.5 24q7 5 6 13t-6.5 15t-14 9.5t-16.5 -3.5q-12 -10 -30 -26.5t-34.5 -32.5t-28 -29
t-10.5 -15z" />
    <glyph glyph-name="Ocircumflex" unicode="&#xd4;" horiz-adv-x="830" 
d="M424 676q-68 0 -133.5 -21.5t-116.5 -65t-82.5 -108t-31.5 -151.5t31.5 -151.5t82.5 -108t116.5 -65t133.5 -21.5t133.5 21.5t116.5 65t82.5 108t31.5 151.5t-31.5 151.5t-82.5 108t-116.5 65t-133.5 21.5zM424 9q-52 0 -101.5 20t-88.5 60t-62.5 100.5t-23.5 140.5
q0 81 23.5 141t62.5 100t88.5 60t101.5 20t101.5 -20t88.5 -60t62.5 -100.5t23.5 -140.5q0 -81 -23.5 -141t-62.5 -100t-88.5 -60t-101.5 -20zM335 694l9 6t21 15.5t24 21t19 22.5l8.5 -7.5t21.5 -18.5t29.5 -22.5t31.5 -18.5l40 34q-26 9 -46.5 22.5t-35 26t-22 21.5
l-7.5 9q-8 -14 -25 -32t-34.5 -33.5t-31 -26l-13.5 -10.5z" />
    <glyph glyph-name="Otilde" unicode="&#xd5;" horiz-adv-x="830" 
d="M424 676q-68 0 -133.5 -21.5t-116.5 -65t-82.5 -108t-31.5 -151.5t31.5 -151.5t82.5 -108t116.5 -65t133.5 -21.5t133.5 21.5t116.5 65t82.5 108t31.5 151.5t-31.5 151.5t-82.5 108t-116.5 65t-133.5 21.5zM424 9q-52 0 -101.5 20t-88.5 60t-62.5 100.5t-23.5 140.5
q0 81 23.5 141t62.5 100t88.5 60t101.5 20t101.5 -20t88.5 -60t62.5 -100.5t23.5 -140.5q0 -81 -23.5 -141t-62.5 -100t-88.5 -60t-101.5 -20zM287 691q21 38 42.5 54t45.5 16q18 0 31 -4t25 -9t25 -9t31 -4q20 0 36.5 6.5t24 12.5t8.5 7q-18 -37 -39 -52.5t-47 -15.5
q-18 0 -29.5 4t-22 9t-22 9t-29.5 4q-20 0 -39.5 -7.5t-29.5 -13.5t-11 -7z" />
    <glyph glyph-name="Odieresis" unicode="&#xd6;" horiz-adv-x="830" 
d="M424 676q-68 0 -133.5 -21.5t-116.5 -65t-82.5 -108t-31.5 -151.5t31.5 -151.5t82.5 -108t116.5 -65t133.5 -21.5t133.5 21.5t116.5 65t82.5 108t31.5 151.5t-31.5 151.5t-82.5 108t-116.5 65t-133.5 21.5zM424 9q-52 0 -101.5 20t-88.5 60t-62.5 100.5t-23.5 140.5
q0 81 23.5 141t62.5 100t88.5 60t101.5 20t101.5 -20t88.5 -60t62.5 -100.5t23.5 -140.5q0 -81 -23.5 -141t-62.5 -100t-88.5 -60t-101.5 -20zM397 729q0 17 -10.5 27.5t-27.5 10.5t-27.5 -10.5t-10.5 -27.5t10.5 -27.5t27.5 -10.5t27.5 10.5t10.5 27.5zM537 729
q0 17 -10.5 27.5t-27.5 10.5t-27.5 -10.5t-10.5 -27.5t10.5 -27.5t27.5 -10.5t27.5 10.5t10.5 27.5z" />
    <glyph glyph-name="multiply" unicode="&#xd7;" horiz-adv-x="452" 
d="M338 178l-33 98l-70 70l96 96l-11 38l-110 -109l-133 133l33 -98l68 -68l-84 -84l9 -40l100 100z" />
    <glyph glyph-name="Oslash" unicode="&#xd8;" horiz-adv-x="830" 
d="M615 630l74 128h-92q-9 0 -10.5 -3t1.5 -8t8 -11.5t8 -13.5q4 -10 -1 -29.5t-10.5 -33t-6.5 -15.5q-38 16 -81 24t-81 8q-75 0 -141.5 -24t-116 -69t-78 -109t-28.5 -144q0 -103 44 -176.5t127 -123.5q-1 -2 -8 -13l-17.5 -27.5t-17.5 -25.5h53q3 18 12 35l9 17
q34 -14 71 -23t91 -9q67 0 132 21t116.5 64t83.5 108t32 153q0 84 -27 141.5t-59.5 92.5t-59.5 50.5zM281 51l312 540l16.5 -15.5t37 -47.5t37 -81t16.5 -117q0 -63 -18 -121.5t-53 -102.5t-86.5 -70.5t-118.5 -26.5q-44 0 -77.5 11t-48.5 20t-17 11zM424 651q46 0 79.5 -11
t48 -20.5t16.5 -11.5l-312 -540l-17 14.5t-37 46t-37 81t-17 120.5q0 63 18.5 121.5t53.5 102.5t86.5 70.5t117.5 26.5z" />
    <glyph glyph-name="Ugrave" unicode="&#xd9;" horiz-adv-x="732" 
d="M60 303q0 -55 14.5 -111t49 -101.5t92.5 -74t146 -28.5q54 0 94.5 16.5t66.5 35t39 31t13 4.5v-75h72v660h-142q-9 0 -5 -4t13.5 -10.5t21 -14.5t17.5 -15q11 -13 17 -31t6 -38v-355q0 -27 -16.5 -57.5t-45 -55.5t-67.5 -41.5t-84 -16.5q-38 0 -76 15t-68.5 48.5t-50 87
t-19.5 131.5q0 68 11.5 121t28 93t34 67t30 44t16.5 24.5t-8 7.5h-138q-10 0 -8.5 -4.5t9.5 -12.5t19.5 -17.5t21.5 -19.5t15 -19.5t1 -16.5q-7 -11 -26.5 -35.5t-40.5 -60t-37 -79t-16 -92.5zM294 761q16 -11 38.5 -24t43.5 -23.5t36 -17t16 -4.5t-10.5 15t-28 29
t-34.5 32.5t-30 26.5q-8 6 -16.5 3.5t-14 -9.5t-6.5 -15t6 -13z" />
    <glyph glyph-name="Uacute" unicode="&#xda;" horiz-adv-x="732" 
d="M60 303q0 -55 14.5 -111t49 -101.5t92.5 -74t146 -28.5q54 0 94.5 16.5t66.5 35t39 31t13 4.5v-75h72v660h-142q-9 0 -5 -4t13.5 -10.5t21 -14.5t17.5 -15q11 -13 17 -31t6 -38v-355q0 -27 -16.5 -57.5t-45 -55.5t-67.5 -41.5t-84 -16.5q-38 0 -76 15t-68.5 48.5t-50 87
t-19.5 131.5q0 68 11.5 121t28 93t34 67t30 44t16.5 24.5t-8 7.5h-138q-10 0 -8.5 -4.5t9.5 -12.5t19.5 -17.5t21.5 -19.5t15 -19.5t1 -16.5q-7 -11 -26.5 -35.5t-40.5 -60t-37 -79t-16 -92.5zM320 692q1 -2 16 4.5t36 17t43.5 23.5t38.5 24q7 5 6 13t-6.5 15t-14 9.5
t-16.5 -3.5q-12 -10 -30 -26.5t-34.5 -32.5t-28 -29t-10.5 -15z" />
    <glyph glyph-name="Ucircumflex" unicode="&#xdb;" horiz-adv-x="732" 
d="M60 303q0 -55 14.5 -111t49 -101.5t92.5 -74t146 -28.5q54 0 94.5 16.5t66.5 35t39 31t13 4.5v-75h72v660h-142q-9 0 -5 -4t13.5 -10.5t21 -14.5t17.5 -15q11 -13 17 -31t6 -38v-355q0 -27 -16.5 -57.5t-45 -55.5t-67.5 -41.5t-84 -16.5q-38 0 -76 15t-68.5 48.5t-50 87
t-19.5 131.5q0 68 11.5 121t28 93t34 67t30 44t16.5 24.5t-8 7.5h-138q-10 0 -8.5 -4.5t9.5 -12.5t19.5 -17.5t21.5 -19.5t15 -19.5t1 -16.5q-7 -11 -26.5 -35.5t-40.5 -60t-37 -79t-16 -92.5zM293 694l9 6t21 15.5t24 21t19 22.5l8.5 -7.5t21.5 -18.5t29.5 -22.5
t31.5 -18.5l40 34q-26 9 -46.5 22.5t-35 26t-22 21.5l-7.5 9q-8 -14 -25 -32t-34.5 -33.5t-31 -26l-13.5 -10.5z" />
    <glyph glyph-name="Udieresis" unicode="&#xdc;" horiz-adv-x="732" 
d="M60 303q0 -55 14.5 -111t49 -101.5t92.5 -74t146 -28.5q54 0 94.5 16.5t66.5 35t39 31t13 4.5v-75h72v660h-142q-9 0 -5 -4t13.5 -10.5t21 -14.5t17.5 -15q11 -13 17 -31t6 -38v-355q0 -27 -16.5 -57.5t-45 -55.5t-67.5 -41.5t-84 -16.5q-38 0 -76 15t-68.5 48.5t-50 87
t-19.5 131.5q0 68 11.5 121t28 93t34 67t30 44t16.5 24.5t-8 7.5h-138q-10 0 -8.5 -4.5t9.5 -12.5t19.5 -17.5t21.5 -19.5t15 -19.5t1 -16.5q-7 -11 -26.5 -35.5t-40.5 -60t-37 -79t-16 -92.5zM358 729q0 17 -10.5 27.5t-27.5 10.5t-27.5 -10.5t-10.5 -27.5t10.5 -27.5
t27.5 -10.5t27.5 10.5t10.5 27.5zM498 729q0 17 -10.5 27.5t-27.5 10.5t-27.5 -10.5t-10.5 -27.5t10.5 -27.5t27.5 -10.5t27.5 10.5t10.5 27.5z" />
    <glyph glyph-name="Yacute" unicode="&#xdd;" horiz-adv-x="733" 
d="M647 107v553h-142q-9 0 -5 -4t13.5 -10.5t21 -14.5t17.5 -15q11 -13 17 -31t6 -38v-406q0 -32 -31.5 -60.5t-79 -45t-103 -15.5t-103 29.5t-79 89.5t-31.5 164q0 68 11.5 121t28 93t34 67t30 44t16.5 24.5t-8 7.5h-138q-10 0 -8.5 -4.5t9.5 -12.5t19.5 -17.5t21.5 -19.5
t15 -19.5t1 -16.5q-7 -11 -26.5 -35.5t-40.5 -60t-37 -79t-16 -92.5q0 -59 17 -115.5t51.5 -100.5t88 -71.5t127.5 -27.5q63 0 107 13t71.5 28.5t40 28.5l12.5 13q0 -90 -25.5 -142.5t-65 -78t-85 -28.5t-85 7.5t-67 30t-28.5 37.5l-9.5 -7.5t-24.5 -17.5t-34 -21t-38 -17
q-4 -1 17.5 -9t58 -16t85 -13.5t99.5 -1.5t100 21t88 53t62.5 94t23.5 145zM352 693q1 -2 16 4.5t36 17t43.5 23.5t38.5 24q7 5 6 13t-6.5 15t-14 9.5t-16.5 -3.5q-12 -10 -30 -26.5t-34.5 -32.5t-28 -29t-10.5 -15z" />
    <glyph glyph-name="Thorn" unicode="&#xde;" horiz-adv-x="534" 
d="M412 406q0 -54 -18 -93.5t-45.5 -67t-59.5 -44.5t-59.5 -25.5t-45.5 -9.5t-18 2v251q0 17 12 33.5t31.5 29.5t44 21t48.5 8q21 0 41 -8t35.5 -22.5t24.5 -33.5t9 -41zM166 475v185h-183q0 -8 17.5 -13.5t38 -17.5t38 -34t17.5 -62v-452q0 -6 -0.5 -16.5t-2 -22.5
t-5.5 -23.5t-10 -18.5h107q-6 7 -9.5 18.5t-5 23.5t-2 22.5t-0.5 16.5v46l24.5 5.5t62 18t80.5 33.5t80.5 52t62 73t24.5 97q0 32 -14.5 56.5t-38.5 41t-54.5 24.5t-61.5 8q-104 0 -165 -61z" />
    <glyph glyph-name="germandbls" unicode="&#xdf;" horiz-adv-x="503" 
d="M240 337q0 5 16 13.5t34.5 22.5t34.5 35.5t16 52.5q0 21 -9.5 41.5t-26 36.5t-37.5 26t-43 10q-30 0 -59 -12.5t-52 -33.5q-12 -11 -24.5 -13t-26.5 -0.5t-29 4t-31 1.5q-5 0 2.5 -6.5t18.5 -19t21 -30.5t10 -42v-456l58 46v412q0 61 28.5 90t64.5 29q7 0 18.5 -4.5
t22 -14.5t18 -26t7.5 -38q0 -42 -13.5 -66t-29.5 -36.5t-29.5 -17t-13.5 -7.5q0 -21 16 -36.5t39.5 -30t51.5 -30t51.5 -34t39.5 -43.5t16 -58q0 -24 -11.5 -43t-29.5 -30t-40 -12.5t-43 7.5q-23 10 -34 24t-14 29t-0.5 30t6.5 26t7.5 18t2.5 6q-17 -14 -32.5 -22.5t-28 -13
t-20 -7t-7.5 -3.5q2 -42 26.5 -68.5t59 -39t74.5 -12t74 13.5t56.5 37.5t22.5 59.5q0 39 -17 66.5t-42.5 48t-55 35.5t-55 28t-42.5 26.5t-17 30.5z" />
    <glyph glyph-name="agrave" unicode="&#xe0;" horiz-adv-x="428" 
d="M247 370q-45 0 -87.5 -18.5t-75 -51t-52 -75.5t-19.5 -91q0 -37 11 -63.5t28.5 -43.5t39.5 -25t44 -8q30 0 55 7.5t43.5 16t29 16l10.5 7.5q1 -2 10.5 -11t31.5 -20t51 -12q14 0 25.5 3.5t19 8.5t11 10t2.5 8q-1 1 -15.5 -2t-32 2t-31.5 26.5t-14 72.5v178q0 25 6 39.5
t17 25.5h-108zM174 26q-16 0 -32 6.5t-29.5 19.5t-22 33.5t-8.5 48.5q0 48 14 85.5t35.5 64t46.5 41.5t46.5 18.5t35.5 -5.5t14 -30v-209q0 -17 -8.5 -30t-22.5 -23t-32 -15t-37 -5zM134 471q16 -11 38.5 -24t43.5 -23.5t36 -17t16 -4.5t-10.5 15t-28 29t-34.5 32.5
t-30 26.5q-8 6 -16.5 3.5t-14 -9.5t-6.5 -15t6 -13z" />
    <glyph glyph-name="aacute" unicode="&#xe1;" horiz-adv-x="428" 
d="M247 370q-45 0 -87.5 -18.5t-75 -51t-52 -75.5t-19.5 -91q0 -37 11 -63.5t28.5 -43.5t39.5 -25t44 -8q30 0 55 7.5t43.5 16t29 16l10.5 7.5q1 -2 10.5 -11t31.5 -20t51 -12q14 0 25.5 3.5t19 8.5t11 10t2.5 8q-1 1 -15.5 -2t-32 2t-31.5 26.5t-14 72.5v178q0 25 6 39.5
t17 25.5h-108zM174 26q-16 0 -32 6.5t-29.5 19.5t-22 33.5t-8.5 48.5q0 48 14 85.5t35.5 64t46.5 41.5t46.5 18.5t35.5 -5.5t14 -30v-209q0 -17 -8.5 -30t-22.5 -23t-32 -15t-37 -5zM176 402q1 -2 16 4.5t36 17t43.5 23.5t38.5 24q7 5 6 13t-6.5 15t-14 9.5t-16.5 -3.5
q-12 -10 -30 -26.5t-34.5 -32.5t-28 -29t-10.5 -15z" />
    <glyph glyph-name="acircumflex" unicode="&#xe2;" horiz-adv-x="428" 
d="M247 370q-45 0 -87.5 -18.5t-75 -51t-52 -75.5t-19.5 -91q0 -37 11 -63.5t28.5 -43.5t39.5 -25t44 -8q30 0 55 7.5t43.5 16t29 16l10.5 7.5q1 -2 10.5 -11t31.5 -20t51 -12q14 0 25.5 3.5t19 8.5t11 10t2.5 8q-1 1 -15.5 -2t-32 2t-31.5 26.5t-14 72.5v178q0 25 6 39.5
t17 25.5h-108zM174 26q-16 0 -32 6.5t-29.5 19.5t-22 33.5t-8.5 48.5q0 48 14 85.5t35.5 64t46.5 41.5t46.5 18.5t35.5 -5.5t14 -30v-209q0 -17 -8.5 -30t-22.5 -23t-32 -15t-37 -5zM111 399l9 6t21 15.5t24 21t19 22.5l8.5 -7.5t21.5 -18.5t29.5 -22.5t31.5 -18.5l40 34
q-26 9 -46.5 22.5t-35 26t-22 21.5l-7.5 9q-8 -14 -25 -32t-34.5 -33.5t-31 -26l-13.5 -10.5z" />
    <glyph glyph-name="atilde" unicode="&#xe3;" horiz-adv-x="428" 
d="M247 370q-45 0 -87.5 -18.5t-75 -51t-52 -75.5t-19.5 -91q0 -37 11 -63.5t28.5 -43.5t39.5 -25t44 -8q30 0 55 7.5t43.5 16t29 16l10.5 7.5q1 -2 10.5 -11t31.5 -20t51 -12q14 0 25.5 3.5t19 8.5t11 10t2.5 8q-1 1 -15.5 -2t-32 2t-31.5 26.5t-14 72.5v178q0 25 6 39.5
t17 25.5h-108zM174 26q-16 0 -32 6.5t-29.5 19.5t-22 33.5t-8.5 48.5q0 48 14 85.5t35.5 64t46.5 41.5t46.5 18.5t35.5 -5.5t14 -30v-209q0 -17 -8.5 -30t-22.5 -23t-32 -15t-37 -5zM219 449q-21 8 -41 13t-39 1.5t-37.5 -18.5t-36.5 -47l11 6.5t29 12.5t40.5 7t45.5 -10
q18 -9 37.5 -13.5t38 0t36 19t31.5 44.5l-8 -6t-23 -11.5t-36 -6.5t-48 9z" />
    <glyph glyph-name="adieresis" unicode="&#xe4;" horiz-adv-x="428" 
d="M247 370q-45 0 -87.5 -18.5t-75 -51t-52 -75.5t-19.5 -91q0 -37 11 -63.5t28.5 -43.5t39.5 -25t44 -8q30 0 55 7.5t43.5 16t29 16l10.5 7.5q1 -2 10.5 -11t31.5 -20t51 -12q14 0 25.5 3.5t19 8.5t11 10t2.5 8q-1 1 -15.5 -2t-32 2t-31.5 26.5t-14 72.5v178q0 25 6 39.5
t17 25.5h-108zM174 26q-16 0 -32 6.5t-29.5 19.5t-22 33.5t-8.5 48.5q0 48 14 85.5t35.5 64t46.5 41.5t46.5 18.5t35.5 -5.5t14 -30v-209q0 -17 -8.5 -30t-22.5 -23t-32 -15t-37 -5zM200 434q0 17 -10.5 27.5t-27.5 10.5t-27.5 -10.5t-10.5 -27.5t10.5 -27.5t27.5 -10.5
t27.5 10.5t10.5 27.5zM340 434q0 17 -10.5 27.5t-27.5 10.5t-27.5 -10.5t-10.5 -27.5t10.5 -27.5t27.5 -10.5t27.5 10.5t10.5 27.5z" />
    <glyph glyph-name="aring" unicode="&#xe5;" horiz-adv-x="428" 
d="M247 370q-45 0 -87.5 -18.5t-75 -51t-52 -75.5t-19.5 -91q0 -37 11 -63.5t28.5 -43.5t39.5 -25t44 -8q30 0 55 7.5t43.5 16t29 16l10.5 7.5q1 -2 10.5 -11t31.5 -20t51 -12q14 0 25.5 3.5t19 8.5t11 10t2.5 8q-1 1 -15.5 -2t-32 2t-31.5 26.5t-14 72.5v178q0 25 6 39.5
t17 25.5h-108zM174 26q-16 0 -32 6.5t-29.5 19.5t-22 33.5t-8.5 48.5q0 48 14 85.5t35.5 64t46.5 41.5t46.5 18.5t35.5 -5.5t14 -30v-209q0 -17 -8.5 -30t-22.5 -23t-32 -15t-37 -5zM191 500q-12 -16 -12 -34t9 -33t24.5 -25t35.5 -10q19 0 34.5 10.5t23.5 26.5t8 33
q0 18 -11 33t-26 22t-30.5 6.5t-30 -8t-25.5 -21.5zM247 415q-9 0 -18.5 8t-16 19t-9.5 24t1 22q6 14 16.5 19.5t21 5t21 -7.5t16.5 -19q18 -32 7.5 -51.5t-39.5 -19.5z" />
    <glyph glyph-name="ae" unicode="&#xe6;" horiz-adv-x="654" 
d="M251 370q-48 0 -91 -18.5t-76 -51t-52 -75.5t-19 -91q0 -37 11 -63.5t28.5 -43.5t39.5 -25t44 -8q33 0 57 5t40.5 12.5t27 15.5t17.5 14v-41h57v51l9.5 -9t27 -19.5t41 -20t51.5 -9.5q33 0 62 11t50 25t32.5 26.5t8.5 15.5q-2 2 -10.5 -4t-23 -14.5t-34.5 -16.5
t-43.5 -9.5t-51 5.5t-57.5 29q-32 23 -43.5 59t-12.5 69.5t4 57.5l5 24h252q3 0 -0.5 16t-19 35.5t-45 36t-78.5 16.5q-38 0 -66.5 -11t-40.5 -20.5t-14 -11.5l4.5 13t15.5 24q1 1 -16 1h-37h-37h-17zM357 289l4.5 11t15 24t27.5 24t42 11q30 0 48.5 -11t28 -24t12.5 -24
l3 -11h-181zM82 134q0 49 14.5 87t36.5 64.5t47 41t47 17.5t36.5 -6t14.5 -30v-209q0 -13 -7.5 -26t-21 -23.5t-32.5 -17t-43 -6.5q-16 0 -32 6.5t-29.5 19.5t-22 33.5t-8.5 48.5z" />
    <glyph glyph-name="ccedilla" unicode="&#xe7;" horiz-adv-x="407" 
d="M14 180q0 -45 11.5 -76.5t29 -52.5t38.5 -33t39 -18t30.5 -7.5t13.5 -1.5q-3 -15 7 -30.5t17.5 -30.5t4 -29t-33.5 -25q-8 -3 -2.5 -4t16.5 0.5t24.5 5t23 10.5t11.5 17.5t-10 25.5q-21 26 -20.5 42.5t14.5 16.5q30 0 55 15t43 33.5t28.5 35.5t10.5 22q-3 -2 -12 -13.5
t-24.5 -25t-37.5 -24.5t-50 -12q-35 -1 -62.5 11t-48 33.5t-32.5 50.5t-15 64q-4 45 4 79t24.5 57.5t39.5 35.5t49 12q23 0 37 -10.5t21 -24.5t8.5 -27.5t0.5 -20.5q0 -2 11.5 2t25.5 10.5t25 13t9 9.5q-26 33 -62.5 48.5t-75.5 15.5q-24 0 -56 -10.5t-61 -34t-49 -61.5
t-20 -94z" />
    <glyph glyph-name="egrave" unicode="&#xe8;" horiz-adv-x="393" 
d="M12 185q0 -43 15 -78.5t41.5 -61.5t61.5 -40.5t74 -14.5q35 0 64.5 11.5t50 26t31 27.5t7.5 16t-12 -3.5t-24 -15.5t-36 -17t-48 -8q-31 0 -59.5 11t-50 31.5t-34 50t-12.5 65.5q0 34 3 51t8 35h252q3 0 -2.5 17t-23 37.5t-49 37.5t-80.5 17q-37 0 -69 -14.5t-56 -40.5
t-38 -61.5t-14 -78.5zM99 289q5 13 12.5 26.5t18 24t25 17.5t34.5 7q19 0 34 -7t26 -17.5t18 -24t12 -26.5h-180zM92 471q16 -11 38.5 -24t43.5 -23.5t36 -17t16 -4.5t-10.5 15t-28 29t-34.5 32.5t-30 26.5q-8 6 -16.5 3.5t-14 -9.5t-6.5 -15t6 -13z" />
    <glyph glyph-name="eacute" unicode="&#xe9;" horiz-adv-x="393" 
d="M12 185q0 -43 15 -78.5t41.5 -61.5t61.5 -40.5t74 -14.5q35 0 64.5 11.5t50 26t31 27.5t7.5 16t-12 -3.5t-24 -15.5t-36 -17t-48 -8q-31 0 -59.5 11t-50 31.5t-34 50t-12.5 65.5q0 34 3 51t8 35h252q3 0 -2.5 17t-23 37.5t-49 37.5t-80.5 17q-37 0 -69 -14.5t-56 -40.5
t-38 -61.5t-14 -78.5zM99 289q5 13 12.5 26.5t18 24t25 17.5t34.5 7q19 0 34 -7t26 -17.5t18 -24t12 -26.5h-180zM138 402q1 -2 16 4.5t36 17t43.5 23.5t38.5 24q7 5 6 13t-6.5 15t-14 9.5t-16.5 -3.5q-12 -10 -30 -26.5t-34.5 -32.5t-28 -29t-10.5 -15z" />
    <glyph glyph-name="ecircumflex" unicode="&#xea;" horiz-adv-x="393" 
d="M12 185q0 -43 15 -78.5t41.5 -61.5t61.5 -40.5t74 -14.5q35 0 64.5 11.5t50 26t31 27.5t7.5 16t-12 -3.5t-24 -15.5t-36 -17t-48 -8q-31 0 -59.5 11t-50 31.5t-34 50t-12.5 65.5q0 34 3 51t8 35h252q3 0 -2.5 17t-23 37.5t-49 37.5t-80.5 17q-37 0 -69 -14.5t-56 -40.5
t-38 -61.5t-14 -78.5zM99 289q5 13 12.5 26.5t18 24t25 17.5t34.5 7q19 0 34 -7t26 -17.5t18 -24t12 -26.5h-180zM85 404l9 6t21 15.5t24 21t19 22.5l8.5 -7.5t21.5 -18.5t29.5 -22.5t31.5 -18.5l40 34q-26 9 -46.5 22.5t-35 26t-22 21.5l-7.5 9q-8 -14 -25 -32t-34.5 -33.5
t-31 -26l-13.5 -10.5z" />
    <glyph glyph-name="edieresis" unicode="&#xeb;" horiz-adv-x="393" 
d="M12 185q0 -43 15 -78.5t41.5 -61.5t61.5 -40.5t74 -14.5q35 0 64.5 11.5t50 26t31 27.5t7.5 16t-12 -3.5t-24 -15.5t-36 -17t-48 -8q-31 0 -59.5 11t-50 31.5t-34 50t-12.5 65.5q0 34 3 51t8 35h252q3 0 -2.5 17t-23 37.5t-49 37.5t-80.5 17q-37 0 -69 -14.5t-56 -40.5
t-38 -61.5t-14 -78.5zM99 289q5 13 12.5 26.5t18 24t25 17.5t34.5 7q19 0 34 -7t26 -17.5t18 -24t12 -26.5h-180zM148 434q0 17 -10.5 27.5t-27.5 10.5t-27.5 -10.5t-10.5 -27.5t10.5 -27.5t27.5 -10.5t27.5 10.5t10.5 27.5zM288 434q0 17 -10.5 27.5t-27.5 10.5
t-27.5 -10.5t-10.5 -27.5t10.5 -27.5t27.5 -10.5t27.5 10.5t10.5 27.5z" />
    <glyph glyph-name="igrave" unicode="&#xec;" horiz-adv-x="220" 
d="M-3 481q16 -11 38.5 -24t43.5 -23.5t36 -17t16 -4.5t-10.5 15t-28 29t-34.5 32.5t-30 26.5q-8 6 -16.5 3.5t-14 -9.5t-6.5 -15t6 -13zM131 44v325h-120q-5 0 -2 -2t9.5 -5t14 -6t11.5 -4q7 -2 18.5 -15.5t11.5 -45.5v-247q0 -24 -14 -44h85q-7 12 -10.5 22t-3.5 22z" />
    <glyph glyph-name="iacute" unicode="&#xed;" horiz-adv-x="220" 
d="M8 402q1 -2 16 4.5t36 17t43.5 23.5t38.5 24q7 5 6 13t-6.5 15t-14 9.5t-16.5 -3.5q-12 -10 -30 -26.5t-34.5 -32.5t-28 -29t-10.5 -15zM129 44v325h-120q-5 0 -2 -2t9.5 -5t14 -6t11.5 -4q7 -2 18.5 -15.5t11.5 -45.5v-247q0 -24 -14 -44h85q-7 12 -10.5 22t-3.5 22z
" />
    <glyph glyph-name="icircumflex" unicode="&#xee;" horiz-adv-x="220" 
d="M-9 405l9 6t21 15.5t24 21t19 22.5l8.5 -7.5t21.5 -18.5t29.5 -22.5t31.5 -18.5l40 34q-26 9 -46.5 22.5t-35 26t-22 21.5l-7.5 9q-8 -14 -25 -32t-34.5 -33.5t-31 -26l-13.5 -10.5zM129 44v325h-120q-5 0 -2 -2t9.5 -5t14 -6t11.5 -4q7 -2 18.5 -15.5t11.5 -45.5v-247
q0 -24 -14 -44h85q-7 12 -10.5 22t-3.5 22z" />
    <glyph glyph-name="idieresis" unicode="&#xef;" horiz-adv-x="220" 
d="M129 44v325h-120q-5 0 -2 -2t9.5 -5t14 -6t11.5 -4q7 -2 18.5 -15.5t11.5 -45.5v-247q0 -24 -14 -44h85q-7 12 -10.5 22t-3.5 22zM44 434q0 17 -10.5 27.5t-27.5 10.5t-27.5 -10.5t-10.5 -27.5t10.5 -27.5t27.5 -10.5t27.5 10.5t10.5 27.5zM184 434q0 17 -10.5 27.5
t-27.5 10.5t-27.5 -10.5t-10.5 -27.5t10.5 -27.5t27.5 -10.5t27.5 10.5t10.5 27.5z" />
    <glyph glyph-name="eth" unicode="&#xf0;" 
d="M199 500h-52l-92 -46h171q19 -32 38.5 -65.5t35.5 -67.5t25.5 -68.5t9.5 -67.5q0 -31 -8.5 -63t-25 -58t-40 -42.5t-54.5 -16.5t-54.5 16.5t-39.5 42.5t-24.5 59.5t-7.5 67t11.5 64.5t30.5 53q24 26 49 31t46.5 -0.5t37 -14.5t21.5 -12q-7 20 -29.5 31.5t-52 13t-62 -7.5
t-59.5 -30.5t-45 -56.5t-18 -84q0 -28 13.5 -61t39 -61.5t63 -47t85.5 -18.5q42 0 76 20t58.5 51.5t38 70.5t13.5 79q0 37 -14 70t-34 63t-44 57t-43 53h60l92 46h-180q-11 24 -11 44q0 24 14 37.5t29.5 21t27 11t6.5 6.5q-16 9 -28.5 12t-24 3.5t-23.5 0t-27 2.5
q-8 1 -17 6t-17.5 8.5t-14 4t-5.5 -7.5q0 -33 16 -70.5t39 -78.5z" />
    <glyph glyph-name="ntilde" unicode="&#xf1;" horiz-adv-x="464" 
d="M52 267v-223q0 -24 -14 -44h86q-7 12 -10.5 21t-3.5 23v232q0 15 13.5 30.5t34 26t46.5 14t50.5 -4.5t45 -30t32 -62.5t10 -101.5t-20.5 -148h58q8 34 14 74.5t7 81t-4.5 79t-21.5 69t-44 49.5t-71 22q-38 2 -65.5 -6t-46.5 -17t-28 -14t-9 3v28q0 9 -11.5 8.5
t-29.5 -3.5t-39.5 -6t-40.5 -1q-5 0 4.5 -5t22.5 -17t24.5 -31.5t11.5 -46.5zM235 453q-21 8 -41 13t-39 1.5t-37.5 -18.5t-36.5 -47l11 6.5t29 12.5t40.5 7t45.5 -10q18 -9 37.5 -13.5t38 0t36 19t31.5 44.5l-8 -6t-23 -11.5t-36 -6.5t-48 9z" />
    <glyph glyph-name="ograve" unicode="&#xf2;" horiz-adv-x="445" 
d="M402 185q0 49 -17 85.5t-44.5 61t-62.5 36.5t-71 12q-37 0 -72 -12t-62.5 -36.5t-44 -61t-16.5 -85.5t17 -85.5t44.5 -61t62.5 -36.5t71 -12q37 0 72 12t62.5 36.5t44 61t16.5 85.5zM207 364q32 0 56 -15.5t39.5 -40.5t23 -57.5t7.5 -65.5t-7.5 -65t-23 -57t-39.5 -40.5
t-56 -15.5t-55.5 15.5t-39.5 40.5t-23.5 57t-7.5 65t7.5 65.5t23 57.5t39.5 40.5t56 15.5zM126 471q16 -11 38.5 -24t43.5 -23.5t36 -17t16 -4.5t-10.5 15t-28 29t-34.5 32.5t-30 26.5q-8 6 -16.5 3.5t-14 -9.5t-6.5 -15t6 -13z" />
    <glyph glyph-name="oacute" unicode="&#xf3;" horiz-adv-x="445" 
d="M138 402q1 -2 16 4.5t36 17t43.5 23.5t38.5 24q7 5 6 13t-6.5 15t-14 9.5t-16.5 -3.5q-12 -10 -30 -26.5t-34.5 -32.5t-28 -29t-10.5 -15zM402 185q0 49 -17 85.5t-44.5 61t-62.5 36.5t-71 12q-37 0 -72 -12t-62.5 -36.5t-44 -61t-16.5 -85.5t17 -85.5t44.5 -61
t62.5 -36.5t71 -12q37 0 72 12t62.5 36.5t44 61t16.5 85.5zM207 364q32 0 56 -15.5t39.5 -40.5t23 -57.5t7.5 -65.5t-7.5 -65t-23 -57t-39.5 -40.5t-56 -15.5t-55.5 15.5t-39.5 40.5t-23.5 57t-7.5 65t7.5 65.5t23 57.5t39.5 40.5t56 15.5z" />
    <glyph glyph-name="ocircumflex" unicode="&#xf4;" horiz-adv-x="445" 
d="M402 185q0 49 -17 85.5t-44.5 61t-62.5 36.5t-71 12q-37 0 -72 -12t-62.5 -36.5t-44 -61t-16.5 -85.5t17 -85.5t44.5 -61t62.5 -36.5t71 -12q37 0 72 12t62.5 36.5t44 61t16.5 85.5zM207 364q32 0 56 -15.5t39.5 -40.5t23 -57.5t7.5 -65.5t-7.5 -65t-23 -57t-39.5 -40.5
t-56 -15.5t-55.5 15.5t-39.5 40.5t-23.5 57t-7.5 65t7.5 65.5t23 57.5t39.5 40.5t56 15.5zM123 404l9 6t21 15.5t24 21t19 22.5l8.5 -7.5t21.5 -18.5t29.5 -22.5t31.5 -18.5l40 34q-26 9 -46.5 22.5t-35 26t-22 21.5l-7.5 9q-8 -14 -25 -32t-34.5 -33.5t-31 -26l-13.5 -10.5
z" />
    <glyph glyph-name="otilde" unicode="&#xf5;" horiz-adv-x="445" 
d="M402 185q0 49 -17 85.5t-44.5 61t-62.5 36.5t-71 12q-37 0 -72 -12t-62.5 -36.5t-44 -61t-16.5 -85.5t17 -85.5t44.5 -61t62.5 -36.5t71 -12q37 0 72 12t62.5 36.5t44 61t16.5 85.5zM207 364q32 0 56 -15.5t39.5 -40.5t23 -57.5t7.5 -65.5t-7.5 -65t-23 -57t-39.5 -40.5
t-56 -15.5t-55.5 15.5t-39.5 40.5t-23.5 57t-7.5 65t7.5 65.5t23 57.5t39.5 40.5t56 15.5zM229 453q-21 8 -41 13t-39 1.5t-37.5 -18.5t-36.5 -47l11 6.5t29 12.5t40.5 7t45.5 -10q18 -9 37.5 -13.5t38 0t36 19t31.5 44.5l-8 -6t-23 -11.5t-36 -6.5t-48 9z" />
    <glyph glyph-name="odieresis" unicode="&#xf6;" horiz-adv-x="445" 
d="M402 185q0 49 -17 85.5t-44.5 61t-62.5 36.5t-71 12q-37 0 -72 -12t-62.5 -36.5t-44 -61t-16.5 -85.5t17 -85.5t44.5 -61t62.5 -36.5t71 -12q37 0 72 12t62.5 36.5t44 61t16.5 85.5zM207 364q32 0 56 -15.5t39.5 -40.5t23 -57.5t7.5 -65.5t-7.5 -65t-23 -57t-39.5 -40.5
t-56 -15.5t-55.5 15.5t-39.5 40.5t-23.5 57t-7.5 65t7.5 65.5t23 57.5t39.5 40.5t56 15.5zM178 434q0 17 -10.5 27.5t-27.5 10.5t-27.5 -10.5t-10.5 -27.5t10.5 -27.5t27.5 -10.5t27.5 10.5t10.5 27.5zM318 434q0 17 -10.5 27.5t-27.5 10.5t-27.5 -10.5t-10.5 -27.5
t10.5 -27.5t27.5 -10.5t27.5 10.5t10.5 27.5z" />
    <glyph glyph-name="divide" unicode="&#xf7;" horiz-adv-x="416" 
d="M92 370l-92 -46h297l92 46h-297zM152 489q0 -17 12.5 -29.5t29.5 -12.5t29.5 12.5t12.5 29.5t-12.5 29.5t-29.5 12.5t-29.5 -12.5t-12.5 -29.5zM152 205q0 -17 12.5 -29.5t29.5 -12.5t29.5 12.5t12.5 29.5t-12.5 29.5t-29.5 12.5t-29.5 -12.5t-12.5 -29.5z" />
    <glyph glyph-name="oslash" unicode="&#xf8;" horiz-adv-x="445" 
d="M12 184q0 -51 20 -92t58 -67l-4.5 -8t-11 -18.5t-14 -21t-13.5 -16.5h48q2 11 7.5 22.5t9 18.5t4.5 8q43 -20 91 -20q37 0 72.5 13t62.5 38t43.5 61t16.5 82t-14 78t-31 52t-31 29l-14 9l42 74h-75q-9 0 -10 -2.5t1.5 -7t7 -10.5t7.5 -12q8 -15 4 -22l-4 -7
q-17 6 -39 10.5t-39 4.5q-41 0 -76.5 -13t-62 -38t-41.5 -61.5t-15 -83.5zM207 6q-23 0 -41 8t-26.5 15t-9.5 8l164 285q1 -2 10 -14.5t19 -44.5t10 -79q0 -27 -7 -58.5t-22 -58t-39 -44t-58 -17.5zM111 60l-7.5 15t-14.5 42t-8 67q0 34 7.5 66.5t23 57.5t39.5 40.5t56 15.5
q20 0 35.5 -6t22.5 -11t8 -6z" />
    <glyph glyph-name="ugrave" unicode="&#xf9;" 
d="M12 160q0 -36 10 -66.5t31 -53t53 -35t76 -12.5q38 0 64.5 10t43 20.5t24 18t7.5 3.5v-45h72q-7 10 -10.5 19.5t-3.5 24.5v281q0 13 2.5 23t11.5 22h-115q-8 0 -2.5 -3t15.5 -11t20 -21t10 -33v-218q0 -18 -18 -32t-44.5 -20.5t-57.5 -4.5t-57.5 16.5t-44.5 43t-18 73.5
q0 61 11.5 101.5t23.5 64.5t19 34t-3 10h-111q-9 0 -2 -6.5t18 -18t19.5 -26.5t2.5 -32q-2 -7 -10 -16.5t-16 -24.5t-14.5 -36t-6.5 -50zM120 471q16 -11 38.5 -24t43.5 -23.5t36 -17t16 -4.5t-10.5 15t-28 29t-34.5 32.5t-30 26.5q-8 6 -16.5 3.5t-14 -9.5t-6.5 -15t6 -13z
" />
    <glyph glyph-name="uacute" unicode="&#xfa;" 
d="M12 160q0 -36 10 -66.5t31 -53t53 -35t76 -12.5q38 0 64.5 10t43 20.5t24 18t7.5 3.5v-45h72q-7 10 -10.5 19.5t-3.5 24.5v281q0 13 2.5 23t11.5 22h-115q-8 0 -2.5 -3t15.5 -11t20 -21t10 -33v-218q0 -18 -18 -32t-44.5 -20.5t-57.5 -4.5t-57.5 16.5t-44.5 43t-18 73.5
q0 61 11.5 101.5t23.5 64.5t19 34t-3 10h-111q-9 0 -2 -6.5t18 -18t19.5 -26.5t2.5 -32q-2 -7 -10 -16.5t-16 -24.5t-14.5 -36t-6.5 -50zM162 402q1 -2 16 4.5t36 17t43.5 23.5t38.5 24q7 5 6 13t-6.5 15t-14 9.5t-16.5 -3.5q-12 -10 -30 -26.5t-34.5 -32.5t-28 -29
t-10.5 -15z" />
    <glyph glyph-name="ucircumflex" unicode="&#xfb;" 
d="M12 160q0 -36 10 -66.5t31 -53t53 -35t76 -12.5q38 0 64.5 10t43 20.5t24 18t7.5 3.5v-45h72q-7 10 -10.5 19.5t-3.5 24.5v281q0 13 2.5 23t11.5 22h-115q-8 0 -2.5 -3t15.5 -11t20 -21t10 -33v-218q0 -18 -18 -32t-44.5 -20.5t-57.5 -4.5t-57.5 16.5t-44.5 43t-18 73.5
q0 61 11.5 101.5t23.5 64.5t19 34t-3 10h-111q-9 0 -2 -6.5t18 -18t19.5 -26.5t2.5 -32q-2 -7 -10 -16.5t-16 -24.5t-14.5 -36t-6.5 -50zM115 404l9 6t21 15.5t24 21t19 22.5l8.5 -7.5t21.5 -18.5t29.5 -22.5t31.5 -18.5l40 34q-26 9 -46.5 22.5t-35 26t-22 21.5l-7.5 9
q-8 -14 -25 -32t-34.5 -33.5t-31 -26l-13.5 -10.5z" />
    <glyph glyph-name="udieresis" unicode="&#xfc;" 
d="M12 160q0 -36 10 -66.5t31 -53t53 -35t76 -12.5q38 0 64.5 10t43 20.5t24 18t7.5 3.5v-45h72q-7 10 -10.5 19.5t-3.5 24.5v281q0 13 2.5 23t11.5 22h-115q-8 0 -2.5 -3t15.5 -11t20 -21t10 -33v-218q0 -18 -18 -32t-44.5 -20.5t-57.5 -4.5t-57.5 16.5t-44.5 43t-18 73.5
q0 61 11.5 101.5t23.5 64.5t19 34t-3 10h-111q-9 0 -2 -6.5t18 -18t19.5 -26.5t2.5 -32q-2 -7 -10 -16.5t-16 -24.5t-14.5 -36t-6.5 -50zM190 434q0 17 -10.5 27.5t-27.5 10.5t-27.5 -10.5t-10.5 -27.5t10.5 -27.5t27.5 -10.5t27.5 10.5t10.5 27.5zM330 434q0 17 -10.5 27.5
t-27.5 10.5t-27.5 -10.5t-10.5 -27.5t10.5 -27.5t27.5 -10.5t27.5 10.5t10.5 27.5z" />
    <glyph glyph-name="yacute" unicode="&#xfd;" 
d="M12 160q0 -36 10 -67t31 -54t53 -36t76 -13q38 0 64.5 10.5t43 21.5t24 19t7.5 4v-18q0 -63 -18 -107t-44 -69.5t-56 -33.5t-55 0t-39.5 32t-10.5 62l-60 -74q13 -27 43 -38.5t68 -8.5t78.5 20.5t74.5 49.5t55.5 78.5t21.5 107.5v279q0 18 5 29t9 16h-115q-5 0 1 -3
t15.5 -11t18 -21t8.5 -33v-218q0 -18 -18 -32t-44.5 -20.5t-57.5 -4.5t-57.5 16.5t-44.5 43t-18 73.5q0 61 11.5 101.5t23.5 64.5t19 34t-3 10h-111q-9 0 -2 -6.5t18 -18t19.5 -26.5t2.5 -32q-2 -7 -10 -16.5t-16 -24.5t-14.5 -36t-6.5 -50zM184 402q1 -2 16 4.5t36 17
t43.5 23.5t38.5 24q7 5 6 13t-6.5 15t-14 9.5t-16.5 -3.5q-12 -10 -30 -26.5t-34.5 -32.5t-28 -29t-10.5 -15z" />
    <glyph glyph-name="thorn" unicode="&#xfe;" horiz-adv-x="474" 
d="M110 278q0 14 11.5 29.5t29.5 28t40.5 20.5t43.5 8q33 0 57 -15.5t40 -40.5t23.5 -57.5t7.5 -65.5q0 -34 -8 -66.5t-23.5 -57.5t-39.5 -40t-57 -15q-25 0 -47.5 11t-40 26.5t-27.5 33t-10 31.5v170zM-8 610q25 -9 42.5 -31.5t17.5 -57.5v-730q0 -15 8 -12t21.5 14.5
t31 24.5t35.5 17q3 0 -3 3t-13.5 11.5t-14.5 24t-7 40.5v124q1 -2 13 -12.5t41.5 -23t70.5 -12.5q49 0 86 16.5t62 43.5t37 62t12 73q0 43 -12.5 78.5t-37 61.5t-61.5 40.5t-86 14.5q-29 0 -52.5 -6.5t-39.5 -14t-24.5 -13.5l-8.5 -6v296h-167q-11 0 -8.5 -2.5t11.5 -6.5
t22 -8.5t24 -8.5z" />
    <glyph glyph-name="ydieresis" unicode="&#xff;" 
d="M12 160q0 -36 10 -67t31 -54t53 -36t76 -13q38 0 64.5 10.5t43 21.5t24 19t7.5 4v-18q0 -63 -18 -107t-44 -69.5t-56 -33.5t-55 0t-39.5 32t-10.5 62l-60 -74q13 -27 43 -38.5t68 -8.5t78.5 20.5t74.5 49.5t55.5 78.5t21.5 107.5v279q0 18 5 29t9 16h-115q-5 0 1 -3
t15.5 -11t18 -21t8.5 -33v-218q0 -18 -18 -32t-44.5 -20.5t-57.5 -4.5t-57.5 16.5t-44.5 43t-18 73.5q0 61 11.5 101.5t23.5 64.5t19 34t-3 10h-111q-9 0 -2 -6.5t18 -18t19.5 -26.5t2.5 -32q-2 -7 -10 -16.5t-16 -24.5t-14.5 -36t-6.5 -50zM182 434q0 17 -10.5 27.5
t-27.5 10.5t-27.5 -10.5t-10.5 -27.5t10.5 -27.5t27.5 -10.5t27.5 10.5t10.5 27.5zM322 434q0 17 -10.5 27.5t-27.5 10.5t-27.5 -10.5t-10.5 -27.5t10.5 -27.5t27.5 -10.5t27.5 10.5t10.5 27.5z" />
    <glyph glyph-name="NUL" unicode="&#xe000;" horiz-adv-x="0" 
 />
    <glyph glyph-name="HT" unicode="&#xe001;" horiz-adv-x="0" 
 />
    <glyph glyph-name="nonmarkingreturn" unicode="&#xe002;" horiz-adv-x="0" 
 />
    <glyph glyph-name="minus" unicode="&#xe003;" horiz-adv-x="416" 
d="M92 370l-92 -46h297l92 46h-297z" />
    <glyph glyph-name="integral" unicode="&#xe004;" horiz-adv-x="706" 
d="M20 600v-600h600v600h-600zM40 20v560h560v-560h-560z" />
    <glyph glyph-name="radical" unicode="&#xe005;" horiz-adv-x="700" 
d="M86 94q-1 -8 10.5 1t28 27t34.5 40t31 39q49 64 104.5 113.5t111 82t107 47t92.5 7.5l45 97q-40 3 -84 -11t-90 -40t-92 -61t-88 -74.5t-79.5 -80.5t-66.5 -79q0 2 3 24t4.5 58.5t-2 73.5t-16.5 69t-39 45q0 -1 -1.5 -9.5t-8 -20.5t-19.5 -20q-9 -5 -20.5 -11t-19 -9.5
t-8.5 -4.5q34 -13 50.5 -45t21.5 -74t1 -90.5t-10 -93.5z" />
    <glyph glyph-name="approxequal" unicode="&#xe006;" horiz-adv-x="672" 
d="M448 251v125h63q57 0 92 34.5t35 89.5q0 56 -36 92t-92 36q-24 0 -47 -7.5t-40.5 -23t-28 -39t-10.5 -56.5v-62h-125v62q0 34 -10.5 58t-28.5 39t-40.5 22t-46.5 7q-56 0 -92 -36t-36 -92q0 -24 7.5 -46.5t23 -39.5t39.5 -27.5t57 -10.5h63v-20v-43v-43v-19h-63
q-33 0 -57 -10.5t-39.5 -27.5t-23 -39.5t-7.5 -46.5q0 -56 36 -92t92 -36q24 0 46.5 7t40.5 22t28.5 39t10.5 58v62h125v-62q0 -33 10.5 -56.5t28 -39t40.5 -23t47 -7.5q56 0 92 36t36 92q0 55 -35 89.5t-92 34.5h-63zM574 500q0 -9 -3 -19.5t-10.5 -19.5t-19.5 -15t-30 -6
h-63v62q0 32 19.5 47t42.5 15q29 0 46.5 -18t17.5 -46zM384 376v-125h-125v125h125zM132 187h63v-62q0 -33 -19.5 -47.5t-42.5 -14.5q-29 0 -46.5 18t-17.5 46q0 23 15 41.5t48 18.5zM195 440h-63q-33 0 -48 18.5t-15 41.5q0 28 17.5 46t46.5 18q23 0 42.5 -14.5t19.5 -47.5
v-62zM511 187q18 0 30 -6t19.5 -15t10.5 -19.5t3 -19.5q0 -28 -17.5 -46t-46.5 -18q-23 0 -42.5 15t-19.5 47v62h63z" />
    <glyph glyph-name="nonbreakingspace" unicode="&#xe007;" horiz-adv-x="238" 
 />
    <glyph glyph-name="lozenge" unicode="&#xe008;" horiz-adv-x="430" 
d="M416 208l-208 208l-208 -208l208 -208zM208 24l-184 184l184 184l184 -184z" />
    <glyph glyph-name="apple" unicode="&#xe009;" horiz-adv-x="746" 
d="M343 66q12 0 21.5 -7t18.5 -16l18.5 -18.5t23.5 -15.5q28 -12 55 -5.5t51.5 23.5t45 39.5t35.5 43t23.5 35t7.5 14.5q-42 -7 -65.5 11.5t-32 50t-5.5 68t14 65.5q18 50 56 76.5t92 31.5q7 1 9.5 23t-6 49t-30.5 51t-62 27q-25 2 -48.5 -5.5t-44 -19t-37.5 -25t-29.5 -24
t-20 -15t-8.5 1.5q-4 21 1 38t13.5 32.5t18 31t13.5 33.5q1 7 -5.5 11.5t-15.5 6t-17.5 -0.5t-10.5 -8q-9 -22 -15 -37.5t-10 -30.5t-7.5 -31.5t-7.5 -41.5q-1 -6 -7.5 6.5t-22.5 30.5t-44 34.5t-71 18.5q-65 3 -108 -25.5t-67.5 -75.5t-32.5 -107.5t-1.5 -122.5t25.5 -119
t47.5 -98t65 -59t78.5 -2q15 6 29.5 15.5t27 18.5t23.5 16t19 7z" />
    </font>
</defs>
</svg>
